  0
SECTION
  2
HEADER
  9
$ACADVER
  1
AC1021
  9
$ACADMAINTVER
 70
    25
  9
$DWGCODEPAGE
  3
ANSI_1252
  9
$COMMENTS
  1
File was created by SpaceClaim
  9
$INSBASE
 10
0.0
 20
0.0
 30
0.0
  9
$EXTMIN
 10
15.0
 20
15.0
 30
-1257.193847114418
  9
$EXTMAX
 10
1470.0
 20
1035.0
 30
0.0
  9
$LIMMIN
 10
0.0
 20
0.0
  9
$LIMMAX
 10
420.0
 20
297.0
  9
$ORTHOMODE
 70
     0
  9
$REGENMODE
 70
     1
  9
$FILLMODE
 70
     1
  9
$QTEXTMODE
 70
     0
  9
$MIRRTEXT
 70
     1
  9
$LTSCALE
 40
1.0
  9
$ATTMODE
 70
     1
  9
$TEXTSIZE
 40
2.5
  9
$TRACEWID
 40
1.0
  9
$TEXTSTYLE
  7
Standard
  9
$CLAYER
  8
0
  9
$CELTYPE
  6
ByLayer
  9
$CECOLOR
 62
   256
  9
$CELTSCALE
 40
1.0
  9
$DISPSILH
 70
     0
  9
$DIMSCALE
 40
1.0
  9
$DIMASZ
 40
2.5
  9
$DIMEXO
 40
0.625
  9
$DIMDLI
 40
3.75
  9
$DIMRND
 40
0.0
  9
$DIMDLE
 40
0.0
  9
$DIMEXE
 40
1.25
  9
$DIMTP
 40
0.0
  9
$DIMTM
 40
0.0
  9
$DIMTXT
 40
2.5
  9
$DIMCEN
 40
2.5
  9
$DIMTSZ
 40
0.0
  9
$DIMTOL
 70
     0
  9
$DIMLIM
 70
     0
  9
$DIMTIH
 70
     1
  9
$DIMTOH
 70
     0
  9
$DIMSE1
 70
     0
  9
$DIMSE2
 70
     0
  9
$DIMTAD
 70
     1
  9
$DIMZIN
 70
     8
  9
$DIMBLK
  1

  9
$DIMASO
 70
     1
  9
$DIMSHO
 70
     1
  9
$DIMPOST
  1
mm
  9
$DIMAPOST
  1

  9
$DIMALT
 70
     0
  9
$DIMALTD
 70
     3
  9
$DIMALTF
 40
0.0078740157480315
  9
$DIMLFAC
 40
0.2
  9
$DIMTOFL
 70
     1
  9
$DIMTVP
 40
0.0
  9
$DIMTIX
 70
     0
  9
$DIMSOXD
 70
     0
  9
$DIMSAH
 70
     0
  9
$DIMBLK1
  1

  9
$DIMBLK2
  1

  9
$DIMSTYLE
  2
ISO-25
  9
$DIMCLRD
 70
     0
  9
$DIMCLRE
 70
     0
  9
$DIMCLRT
 70
     0
  9
$DIMTFAC
 40
1.0
  9
$DIMGAP
 40
0.625
  9
$DIMJUST
 70
     0
  9
$DIMSD1
 70
     0
  9
$DIMSD2
 70
     0
  9
$DIMTOLJ
 70
     0
  9
$DIMTZIN
 70
     8
  9
$DIMALTZ
 70
     0
  9
$DIMALTTZ
 70
     8
  9
$DIMUPT
 70
     0
  9
$DIMDEC
 70
     2
  9
$DIMTDEC
 70
     2
  9
$DIMALTU
 70
     2
  9
$DIMALTTD
 70
     3
  9
$DIMTXSTY
  7
Standard
  9
$DIMAUNIT
 70
     0
  9
$DIMADEC
 70
     1
  9
$DIMALTRND
 40
0.0
  9
$DIMAZIN
 70
     0
  9
$DIMDSEP
 70
    46
  9
$DIMATFIT
 70
     3
  9
$DIMFRAC
 70
     0
  9
$DIMLDRBLK
  1

  9
$DIMLUNIT
 70
     2
  9
$DIMLWD
 70
    -2
  9
$DIMLWE
 70
    -2
  9
$DIMTMOVE
 70
     0
  9
$DIMFXL
 40
1.0
  9
$DIMFXLON
 70
     0
  9
$DIMJOGANG
 40
0.7853981633974483
  9
$DIMTFILL
 70
     0
  9
$DIMTFILLCLR
 70
     0
  9
$DIMARCSYM
 70
     0
  9
$DIMLTYPE
  6

  9
$DIMLTEX1
  6

  9
$DIMLTEX2
  6

  9
$LUNITS
 70
     2
  9
$LUPREC
 70
     4
  9
$SKETCHINC
 40
1.0
  9
$FILLETRAD
 40
10.0
  9
$AUNITS
 70
     0
  9
$AUPREC
 70
     0
  9
$MENU
  1
.
  9
$ELEVATION
 40
0.0
  9
$PELEVATION
 40
0.0
  9
$THICKNESS
 40
0.0
  9
$LIMCHECK
 70
     0
  9
$CHAMFERA
 40
0.0
  9
$CHAMFERB
 40
0.0
  9
$CHAMFERC
 40
0.0
  9
$CHAMFERD
 40
0.0
  9
$SKPOLY
 70
     0
  9
$TDCREATE
 40
2457806.412406343
  9
$TDUCREATE
 40
2457805.870739676
  9
$TDUPDATE
 40
2457806.412408391
  9
$TDUUPDATE
 40
2457805.870741725
  9
$TDINDWG
 40
0.0000000116
  9
$TDUSRTIMER
 40
0.0000000116
  9
$USRTIMER
 70
     1
  9
$ANGBASE
 50
0.0
  9
$ANGDIR
 70
     0
  9
$PDMODE
 70
     0
  9
$PDSIZE
 40
0.0
  9
$PLINEWID
 40
0.0
  9
$SPLFRAME
 70
     0
  9
$SPLINETYPE
 70
     6
  9
$SPLINESEGS
 70
     8
  9
$HANDSEED
  5
301
  9
$SURFTAB1
 70
     6
  9
$SURFTAB2
 70
     6
  9
$SURFTYPE
 70
     6
  9
$SURFU
 70
     6
  9
$SURFV
 70
     6
  9
$UCSBASE
  2

  9
$UCSNAME
  2

  9
$UCSORG
 10
0.0
 20
0.0
 30
0.0
  9
$UCSXDIR
 10
1.0
 20
0.0
 30
0.0
  9
$UCSYDIR
 10
0.0
 20
1.0
 30
0.0
  9
$UCSORTHOREF
  2

  9
$UCSORTHOVIEW
 70
     0
  9
$UCSORGTOP
 10
0.0
 20
0.0
 30
0.0
  9
$UCSORGBOTTOM
 10
0.0
 20
0.0
 30
0.0
  9
$UCSORGLEFT
 10
0.0
 20
0.0
 30
0.0
  9
$UCSORGRIGHT
 10
0.0
 20
0.0
 30
0.0
  9
$UCSORGFRONT
 10
0.0
 20
0.0
 30
0.0
  9
$UCSORGBACK
 10
0.0
 20
0.0
 30
0.0
  9
$PUCSBASE
  2

  9
$PUCSNAME
  2

  9
$PUCSORG
 10
0.0
 20
0.0
 30
0.0
  9
$PUCSXDIR
 10
1.0
 20
0.0
 30
0.0
  9
$PUCSYDIR
 10
0.0
 20
1.0
 30
0.0
  9
$PUCSORTHOREF
  2

  9
$PUCSORTHOVIEW
 70
     0
  9
$PUCSORGTOP
 10
0.0
 20
0.0
 30
0.0
  9
$PUCSORGBOTTOM
 10
0.0
 20
0.0
 30
0.0
  9
$PUCSORGLEFT
 10
0.0
 20
0.0
 30
0.0
  9
$PUCSORGRIGHT
 10
0.0
 20
0.0
 30
0.0
  9
$PUCSORGFRONT
 10
0.0
 20
0.0
 30
0.0
  9
$PUCSORGBACK
 10
0.0
 20
0.0
 30
0.0
  9
$USERI1
 70
     0
  9
$USERI2
 70
     0
  9
$USERI3
 70
     0
  9
$USERI4
 70
     0
  9
$USERI5
 70
     0
  9
$USERR1
 40
0.0
  9
$USERR2
 40
0.0
  9
$USERR3
 40
0.0
  9
$USERR4
 40
0.0
  9
$USERR5
 40
0.0
  9
$WORLDVIEW
 70
     1
  9
$SHADEDGE
 70
     3
  9
$SHADEDIF
 70
    70
  9
$TILEMODE
 70
     1
  9
$MAXACTVP
 70
    64
  9
$PINSBASE
 10
0.0
 20
0.0
 30
0.0
  9
$PLIMCHECK
 70
     0
  9
$PEXTMIN
 10
1.000000000000000E+20
 20
1.000000000000000E+20
 30
1.000000000000000E+20
  9
$PEXTMAX
 10
-1.000000000000000E+20
 20
-1.000000000000000E+20
 30
-1.000000000000000E+20
  9
$PLIMMIN
 10
0.0
 20
0.0
  9
$PLIMMAX
 10
420.0
 20
297.0
  9
$UNITMODE
 70
     0
  9
$VISRETAIN
 70
     1
  9
$PLINEGEN
 70
     0
  9
$PSLTSCALE
 70
     1
  9
$TREEDEPTH
 70
  3020
  9
$CMLSTYLE
  2
Standard
  9
$CMLJUST
 70
     0
  9
$CMLSCALE
 40
20.0
  9
$PROXYGRAPHICS
 70
     1
  9
$MEASUREMENT
 70
     1
  9
$CELWEIGHT
370
    -1
  9
$ENDCAPS
280
     0
  9
$JOINSTYLE
280
     0
  9
$LWDISPLAY
290
     0
  9
$INSUNITS
 70
     4
  9
$HYPERLINKBASE
  1

  9
$STYLESHEET
  1

  9
$XEDIT
290
     1
  9
$CEPSNTYPE
380
     0
  9
$PSTYLEMODE
290
     1
  9
$FINGERPRINTGUID
  2
{876BD650-DBD5-443F-809B-728526FCB0DE}
  9
$VERSIONGUID
  2
{FAEB1C32-E019-11D5-929B-00C0DF256EC4}
  9
$EXTNAMES
290
     1
  9
$PSVPSCALE
 40
0.0
  9
$OLESTARTUP
290
     0
  9
$SORTENTS
280
   127
  9
$INDEXCTL
280
     0
  9
$HIDETEXT
280
     1
  9
$XCLIPFRAME
290
     0
  9
$HALOGAP
280
     0
  9
$OBSCOLOR
 70
   257
  9
$OBSLTYPE
280
     0
  9
$INTERSECTIONDISPLAY
280
     0
  9
$INTERSECTIONCOLOR
 70
   257
  9
$DIMASSOC
280
     2
  9
$PROJECTNAME
  1

  9
$CAMERADISPLAY
290
     0
  9
$LENSLENGTH
 40
50.0
  9
$CAMERAHEIGHT
 40
0.0
  9
$STEPSPERSEC
 40
2.0
  9
$STEPSIZE
 40
6.0
  9
$3DDWFPREC
 40
2.0
  9
$PSOLWIDTH
 40
5.0
  9
$PSOLHEIGHT
 40
80.0
  9
$LOFTANG1
 40
1.570796326794897
  9
$LOFTANG2
 40
1.570796326794897
  9
$LOFTMAG1
 40
0.0
  9
$LOFTMAG2
 40
0.0
  9
$LOFTPARAM
 70
     7
  9
$LOFTNORMALS
280
     1
  9
$LATITUDE
 40
37.795
  9
$LONGITUDE
 40
-122.394
  9
$NORTHDIRECTION
 40
0.0
  9
$TIMEZONE
 70
 -8000
  9
$LIGHTGLYPHDISPLAY
280
     1
  9
$TILEMODELIGHTSYNCH
280
     1
  9
$CMATERIAL
347
44
  9
$SOLIDHIST
280
     1
  9
$SHOWHIST
280
     1
  9
$DWFFRAME
280
     2
  9
$DGNFRAME
280
     2
  9
$REALWORLDSCALE
290
     1
  9
$INTERFERECOLOR
 62
   256
  9
$CSHADOW
280
     0
  9
$SHADOWPLANELOCATION
 40
0.0
  0
ENDSEC
  0
SECTION
  2
CLASSES
  0
CLASS
  1
ACDBDICTIONARYWDFLT
  2
AcDbDictionaryWithDefault
  3
ObjectDBX Classes
 90
        0
 91
        4
280
     0
281
     0
  0
CLASS
  1
VISUALSTYLE
  2
AcDbVisualStyle
  3
ObjectDBX Classes
 90
     4095
 91
        4
280
     0
281
     0
  0
CLASS
  1
MATERIAL
  2
AcDbMaterial
  3
ObjectDBX Classes
 90
     1153
 91
        4
280
     0
281
     0
  0
CLASS
  1
SCALE
  2
AcDbScale
  3
ObjectDBX Classes
 90
     1153
 91
        4
280
     0
281
     0
  0
CLASS
  1
SUN
  2
AcDbSun
  3
SCENEOE
 90
     1153
 91
        4
280
     0
281
     0
  0
CLASS
  1
DICTIONARYVAR
  2
AcDbDictionaryVar
  3
ObjectDBX Classes
 90
        0
 91
        4
280
     0
281
     0
  0
ENDSEC
  0
SECTION
  2
TABLES
  0
TABLE
  2
VPORT
  5
8
330
0
100
AcDbSymbolTable
 70
     1
  0
VPORT
  5
29
330
8
100
AcDbSymbolTableRecord
100
AcDbViewportTableRecord
  2
*Active
 70
     0
 10
0.0
 20
0.0
 11
1.0
 21
1.0
 12
742.5
 22
525.0
 13
0.0
 23
0.0
 14
10.0
 24
10.0
 15
10.0
 25
10.0
 16
0.0
 26
0.0
 36
1.0
 17
0.0
 27
0.0
 37
0.0
 40
1020.0
 41
1.426470588235294
 42
50.0
 43
0.0
 44
0.0
 50
0.0
 51
0.0
 71
     0
 72
   100
 73
     1
 74
     3
 75
     0
 76
     0
 77
     0
 78
     0
281
     0
 65
     1
110
0.0
120
0.0
130
0.0
111
1.0
121
0.0
131
0.0
112
0.0
122
1.0
132
0.0
 79
     0
146
0.0
 60
     3
 61
     5
292
     1
282
     1
141
0.0
142
0.0
 63
   250
361
69
  0
ENDTAB
  0
TABLE
  2
LTYPE
  5
5
330
0
100
AcDbSymbolTable
 70
     1
  0
LTYPE
  5
14
330
5
100
AcDbSymbolTableRecord
100
AcDbLinetypeTableRecord
  2
ByBlock
 70
     0
  3

 72
    65
 73
     0
 40
0.0
  0
LTYPE
  5
15
330
5
100
AcDbSymbolTableRecord
100
AcDbLinetypeTableRecord
  2
ByLayer
 70
     0
  3

 72
    65
 73
     0
 40
0.0
  0
LTYPE
  5
16
330
5
100
AcDbSymbolTableRecord
100
AcDbLinetypeTableRecord
  2
Continuous
 70
     0
  3
Solid line
 72
    65
 73
     0
 40
0.0
  0
ENDTAB
  0
TABLE
  2
LAYER
  5
2
330
0
100
AcDbSymbolTable
 70
     9
  0
LAYER
  5
10
330
2
100
AcDbSymbolTableRecord
100
AcDbLayerTableRecord
  2
0
 70
     0
 62
   253
420
  9416591
  6
Continuous
370
     9
390
F
347
46
  0
LAYER
  5
6A
330
2
100
AcDbSymbolTableRecord
100
AcDbLayerTableRecord
  2
Layer0_
 70
     0
 62
     7
  6
Continuous
370
    25
390
F
347
46
  0
LAYER
  5
6B
330
2
100
AcDbSymbolTableRecord
100
AcDbLayerTableRecord
  2
A-DETL-GENF
 70
     0
 62
    92
  6
Continuous
370
    18
390
F
347
46
  0
LAYER
  5
6C
330
2
100
AcDbSymbolTableRecord
100
AcDbLayerTableRecord
  2
A-DETL-HDLN
 70
     0
 62
     3
  6
Continuous
370
    18
390
F
347
46
  0
LAYER
  5
6D
330
2
100
AcDbSymbolTableRecord
100
AcDbLayerTableRecord
  2
A-DETL-THIN
 70
     0
 62
   151
  6
Continuous
370
    25
390
F
347
46
  0
LAYER
  5
6E
330
2
100
AcDbSymbolTableRecord
100
AcDbLayerTableRecord
  2
G-ANNO-TEXT
 70
     0
 62
   231
  6
Continuous
370
    30
390
F
347
46
  0
LAYER
  5
6F
330
2
100
AcDbSymbolTableRecord
100
AcDbLayerTableRecord
  2
G-ANNO-NPLT
 70
     0
 62
   191
  6
Continuous
370
    25
390
F
347
46
  0
LAYER
  5
70
330
2
100
AcDbSymbolTableRecord
100
AcDbLayerTableRecord
  2
G-ANNO-TTLB
 70
     0
 62
     6
  6
Continuous
370
    30
390
F
347
46
  0
LAYER
  5
29B
330
2
100
AcDbSymbolTableRecord
100
AcDbLayerTableRecord
  2
Defpoints
 70
     0
 62
     7
  6
Continuous
290
     0
370
    -3
390
F
347
46
  0
ENDTAB
  0
TABLE
  2
STYLE
  5
3
330
0
100
AcDbSymbolTable
 70
     3
  0
STYLE
  5
11
330
3
100
AcDbSymbolTableRecord
100
AcDbTextStyleTableRecord
  2
Standard
 70
     0
 40
0.0
 41
1.0
 50
0.0
 71
     0
 42
2.5
  3
txt
  4

  0
STYLE
  5
298
330
3
100
AcDbSymbolTableRecord
100
AcDbTextStyleTableRecord
  2
Arial
 70
     0
 40
0.0
 41
1.0
 50
0.0
 71
     0
 42
2.5
  3
arial.ttf
  4

1001
ACAD
1000
Arial
1071
        0
  0
STYLE
  5
2B9
330
3
100
AcDbSymbolTableRecord
100
AcDbTextStyleTableRecord
  2
SpaceClaim ASME CB
 70
     0
 40
0.0
 41
1.0
 50
0.0
 71
     0
 42
2.5
  3

  4

1001
ACAD
1000
SpaceClaim ASME CB
1071
        0
  0
ENDTAB
  0
TABLE
  2
VIEW
  5
6
330
0
100
AcDbSymbolTable
 70
     0
  0
ENDTAB
  0
TABLE
  2
UCS
  5
7
330
0
100
AcDbSymbolTable
 70
     0
  0
ENDTAB
  0
TABLE
  2
APPID
  5
9
330
0
100
AcDbSymbolTable
 70
     1
  0
APPID
  5
12
330
9
100
AcDbSymbolTableRecord
100
AcDbRegAppTableRecord
  2
ACAD
 70
     0
  0
ENDTAB
  0
TABLE
  2
DIMSTYLE
  5
A
330
0
100
AcDbSymbolTable
 70
     2
100
AcDbDimStyleTable
  0
DIMSTYLE
105
27
330
A
100
AcDbSymbolTableRecord
100
AcDbDimStyleTableRecord
  2
ISO-25
 70
     0
 41
2.5
 42
0.625
 43
3.75
 44
1.25
 73
     0
 74
     0
 77
     1
 78
     8
140
2.5
141
2.5
143
0.03937007874016
147
0.625
171
     3
172
     1
178
     0
271
     2
272
     2
274
     3
278
    44
283
     0
284
     8
340
11
  0
DIMSTYLE
105
299
102
{ACAD_REACTORS
330
297
330
2AA
102
}
330
A
100
AcDbSymbolTableRecord
100
AcDbDimStyleTableRecord
  2
Arial
 70
     0
178
     0
340
298
  0
ENDTAB
  0
TABLE
  2
BLOCK_RECORD
  5
1
330
0
100
AcDbSymbolTable
 70
     3
  0
BLOCK_RECORD
  5
1F
330
1
100
AcDbSymbolTableRecord
100
AcDbBlockTableRecord
  2
*Model_Space
340
22
 70
     0
280
     1
281
     0
  0
BLOCK_RECORD
  5
1B
330
1
100
AcDbSymbolTableRecord
100
AcDbBlockTableRecord
  2
*Paper_Space
340
1E
 70
     0
280
     1
281
     0
  0
BLOCK_RECORD
  5
23
330
1
100
AcDbSymbolTableRecord
100
AcDbBlockTableRecord
  2
*Paper_Space0
340
26
 70
     0
280
     1
281
     0
  0
BLOCK_RECORD
  5
29C
330
1
100
AcDbSymbolTableRecord
100
AcDbBlockTableRecord
  2
*D1
340
0
 70
     0
280
     1
281
     0
  0
BLOCK_RECORD
  5
2AC
330
1
100
AcDbSymbolTableRecord
100
AcDbBlockTableRecord
  2
*D2
340
0
 70
     0
280
     1
281
     0
  0
ENDTAB
  0
ENDSEC
  0
SECTION
  2
BLOCKS
  0
BLOCK
  5
20
330
1F
100
AcDbEntity
  8
0
100
AcDbBlockBegin
  2
*Model_Space
 70
     0
 10
0.0
 20
0.0
 30
0.0
  3
*Model_Space
  1
*Model_Space
  0
ENDBLK
  5
21
330
1F
100
AcDbEntity
  8
0
100
AcDbBlockEnd
  0
BLOCK
  5
1C
330
1B
100
AcDbEntity
 67
     1
  8
0
100
AcDbBlockBegin
  2
*Paper_Space
 70
     0
 10
0.0
 20
0.0
 30
0.0
  3
*Paper_Space
  1
*Paper_Space
  0
ENDBLK
  5
1D
330
1B
100
AcDbEntity
 67
     1
  8
0
100
AcDbBlockEnd
  0
BLOCK
  5
24
330
23
100
AcDbEntity
  8
0
100
AcDbBlockBegin
  2
*Paper_Space0
 70
     0
 10
0.0
 20
0.0
 30
0.0
  3
*Paper_Space0
  1
*Paper_Space0
  0
ENDBLK
  5
25
330
23
100
AcDbEntity
  8
0
100
AcDbBlockEnd
  0
BLOCK
  5
29D
330
29C
100
AcDbEntity
  8
0
100
AcDbBlockBegin
  2
*D1
 70
     1
 10
0.0
 20
0.0
 30
0.0
  3
*D1
  1
*D1
  0
LINE
  5
29F
330
29C
100
AcDbEntity
  8
0
 62
     7
370
    -2
100
AcDbLine
 10
548.6374930486326
 20
326.8690666768327
 30
0.0
 11
536.1374930486326
 21
326.8690666768327
 31
0.0
  0
LINE
  5
2A0
330
29C
100
AcDbEntity
  8
0
 62
     7
370
    -2
100
AcDbLine
 10
536.1374930486326
 20
326.8690666768327
 30
0.0
 11
527.9106981900371
 21
336.2802220976398
 31
0.0
  0
LINE
  5
2A1
330
29C
100
AcDbEntity
  8
0
 62
     7
370
    -2
100
AcDbLine
 10
522.8509038768117
 20
393.7411169594436
 30
0.0
 11
497.1109882183344
 21
371.2404784797445
 31
0.0
  0
LINE
  5
2A2
330
29C
100
AcDbEntity
  8
0
 62
     7
370
    -2
100
AcDbLine
 10
603.5279227720412
 20
402.3812869081427
 30
0.0
 11
527.7751775519775
 21
336.161756251676
 31
0.0
  0
LINE
  5
2A3
330
29C
100
AcDbEntity
  8
0
 62
     7
370
    -2
100
AcDbLine
 10
505.4733037149895
 20
361.9477889049012
 30
0.0
 11
519.6839033314417
 21
345.6913775184469
 31
0.0
  0
SOLID
  5
2A4
330
29C
100
AcDbEntity
  8
0
 62
     7
100
AcDbTrace
 10
507.0418296184573
 20
363.3189213813338
 30
0.0
 11
503.9047778115216
 21
360.5766564284686
 31
0.0
 12
497.246508856394
 22
371.3589443257083
 32
0.0
 13
497.246508856394
 23
371.3589443257083
 33
0.0
  0
SOLID
  5
2A5
330
29C
100
AcDbEntity
  8
0
 62
     7
100
AcDbTrace
 10
518.1153774279738
 20
344.3202450420143
 30
0.0
 11
521.2524292349095
 21
347.0625099948795
 31
0.0
 12
527.9106981900371
 22
336.2802220976398
 32
0.0
 13
527.9106981900371
 23
336.2802220976398
 33
0.0
  0
MTEXT
  5
2A6
330
29C
100
AcDbEntity
  8
0
 62
     7
370
     9
100
AcDbMText
 10
578.6399930486326
 20
326.8690666768327
 30
0.0
 40
12.5
 41
0.0
 46
0.0
 71
     5
 72
     1
  1
\A1;{\fArial|b0|i0;50 Max.}
  7
Arial
 73
     1
 44
1.0
  0
POINT
  5
2A7
330
29C
100
AcDbEntity
  8
Defpoints
 62
     0
100
AcDbPoint
 10
522.8979596539157
 20
393.7822509337365
 30
0.0
  0
POINT
  5
2A8
330
29C
100
AcDbEntity
  8
Defpoints
 62
     0
100
AcDbPoint
 10
603.5749785491452
 20
402.4224208824356
 30
0.0
  0
POINT
  5
2A9
330
29C
100
AcDbEntity
  8
Defpoints
 62
     0
100
AcDbPoint
 10
527.9106981900371
 20
336.2802220976398
 30
0.0
  0
ENDBLK
  5
29E
330
29C
100
AcDbEntity
  8
0
100
AcDbBlockEnd
  0
BLOCK
  5
2AD
330
2AC
100
AcDbEntity
  8
0
100
AcDbBlockBegin
  2
*D2
 70
     1
 10
0.0
 20
0.0
 30
0.0
  3
*D2
  1
*D2
  0
ARC
  5
2AF
330
2AC
100
AcDbEntity
  8
0
 62
     7
370
    -2
100
AcDbCircle
 10
715.4882080437909
 20
389.0667350664873
 30
0.0
 40
139.7465869849125
100
AcDbArc
 50
349.1666312941692
 51
5.790724215683124
  0
ARC
  5
2B0
330
2AC
100
AcDbEntity
  8
0
 62
     7
370
    -2
100
AcDbCircle
 10
715.4882080437909
 20
389.0667350664873
 30
0.0
 40
139.7465869849125
100
AcDbArc
 50
11.22557036188359
 51
30.37314394360118
  0
SOLID
  5
2B1
330
2AC
100
AcDbEntity
  8
0
 62
     7
100
AcDbTrace
 10
850.7175808494586
 20
363.2835861254984
 30
0.0
 11
854.7708691262679
 21
362.318202649262
 31
0.0
 12
849.8480745591539
 22
350.6410295569519
 32
0.0
 13
849.8480745591539
 23
350.6410295569519
 33
0.0
  0
SOLID
  5
2B2
330
2AC
100
AcDbEntity
  8
0
 62
     7
100
AcDbTrace
 10
837.803170114118
 20
460.8594486133785
 30
0.0
 11
834.3061958907562
 21
458.5939944884283
 31
0.0
 12
829.2583206275865
 22
470.217644220989
 32
0.0
 13
829.2583206275865
 23
470.217644220989
 33
0.0
  0
MTEXT
  5
2B3
330
2AC
100
AcDbEntity
  8
0
 62
     7
370
     9
100
AcDbMText
 10
853.7003368695849
 20
409.7189993339676
 30
0.0
 40
12.5
 41
0.0
 46
0.0
 71
     5
 72
     1
  1
{\fArial|b0|i0;45\U+00B0}
  7
Arial
 73
     1
 44
1.0
  0
POINT
  5
2B4
330
2AC
100
AcDbEntity
  8
Defpoints
 62
     0
100
AcDbPoint
 10
848.1314971903353
 20
433.0538515702766
 30
0.0
  0
POINT
  5
2B5
330
2AC
100
AcDbEntity
  8
Defpoints
 62
     0
100
AcDbPoint
 10
976.0986628868169
 20
574.9571667921565
 30
0.0
  0
POINT
  5
2B6
330
2AC
100
AcDbEntity
  8
Defpoints
 62
     0
100
AcDbPoint
 10
947.1546794411348
 20
322.8122214440756
 30
0.0
  0
POINT
  5
2B7
330
2AC
100
AcDbEntity
  8
Defpoints
 62
     0
100
AcDbPoint
 10
510.815386593174
 20
447.6013091684038
 30
0.0
  0
POINT
  5
2B8
330
2AC
100
AcDbEntity
  8
Defpoints
 62
     0
100
AcDbPoint
 10
692.27860959636
 20
372.5115961785594
 30
0.0
  0
ENDBLK
  5
2AE
330
2AC
100
AcDbEntity
  8
0
100
AcDbBlockEnd
  0
ENDSEC
  0
SECTION
  2
ENTITIES
  0
LINE
  5
71
330
1F
100
AcDbEntity
  8
Layer0_
 62
   250
420
  2500134
370
    -3
100
AcDbLine
 10
823.381184652685
 20
887.9422552363084
 30
0.0
 11
795.7172535647226
 21
816.5437065315689
 31
0.0
  0
ELLIPSE
  5
72
330
1F
100
AcDbEntity
  8
Layer0_
 62
   250
420
  2500134
370
    -3
100
AcDbEllipse
 10
827.5993115851114
 20
884.1964612593536
 30
0.0
 11
3.318590848140774
 21
11.5319969988997
 31
0.0
210
0.0
220
0.0
230
1.0
 40
0.4331234251171586
 41
0.5812167889894576
 42
1.366614952386893
  0
LINE
  5
73
330
1F
100
AcDbEntity
  8
Layer0_
 62
   250
420
  2500134
370
    -3
100
AcDbLine
 10
857.8356112955272
 20
920.4647112672906
 30
0.0
 11
827.6306343169666
 21
894.6240187480257
 31
0.0
  0
LINE
  5
74
330
1F
100
AcDbEntity
  8
Layer0_
 62
   250
420
  2500134
370
    -3
100
AcDbLine
 10
796.4202747201276
 20
815.919407535409
 30
0.0
 11
795.7172535647233
 21
816.5437065315682
 31
0.0
  0
ELLIPSE
  5
75
330
1F
100
AcDbEntity
  8
Layer0_
 62
   250
420
  2500134
370
    -3
100
AcDbEllipse
 10
806.1895820082991
 20
822.2787757209792
 30
0.0
 11
-1.652980813086609
 21
-1.87410859087439
 31
0.0
210
0.0
220
0.0
230
1.0
 40
0.8833719423715478
 41
3.3549840612028
 42
6.066566818945189
  0
ELLIPSE
  5
76
330
1F
100
AcDbEntity
  8
Layer0_
 62
   250
420
  2500134
370
    -3
100
AcDbEllipse
 10
805.4865608528945
 20
822.9030747171386
 30
0.0
 11
-1.652980813086609
 21
-1.87410859087439
 31
0.0
210
0.0
220
0.0
230
1.0
 40
0.8833719423715478
 41
0.0
 42
6.283185307179586
  0
ELLIPSE
  5
77
330
1F
100
AcDbEntity
  8
Layer0_
 62
   250
420
  2500134
370
    -3
100
AcDbEllipse
 10
815.0435575830859
 20
845.2050276296503
 30
0.0
 11
-1.652980813086921
 21
-1.874108590873973
 31
0.0
210
0.0
220
0.0
230
1.0
 40
0.8833719423715739
 41
3.354984061208003
 42
6.066566818950426
  0
ELLIPSE
  5
78
330
1F
100
AcDbEntity
  8
Layer0_
 62
   250
420
  2500134
370
    -3
100
AcDbEllipse
 10
814.3405364276812
 20
845.8293266258097
 30
0.0
 11
-1.652980813086964
 21
-1.874108590873884
 31
0.0
210
0.0
220
0.0
230
1.0
 40
0.8833719423715929
 41
0.0
 42
6.283185307179586
  0
ELLIPSE
  5
79
330
1F
100
AcDbEntity
  8
Layer0_
 62
   250
420
  2500134
370
    -3
100
AcDbEllipse
 10
827.8441720333285
 20
816.0471816367834
 30
0.0
 11
-1.65298081308697
 21
-1.874108590874118
 31
0.0
210
0.0
220
0.0
230
1.0
 40
0.8833719423715707
 41
3.35498406120626
 42
6.066566818949098
  0
ELLIPSE
  5
7A
330
1F
100
AcDbEntity
  8
Layer0_
 62
   250
420
  2500134
370
    -3
100
AcDbEllipse
 10
827.1411508779241
 20
816.6714806329427
 30
0.0
 11
-1.65298081308697
 21
-1.874108590874118
 31
0.0
210
0.0
220
0.0
230
1.0
 40
0.8833719423715707
 41
0.0
 42
6.283185307179586
  0
ELLIPSE
  5
7B
330
1F
100
AcDbEntity
  8
Layer0_
 62
   250
420
  2500134
370
    -3
100
AcDbEllipse
 10
836.698147608115
 20
838.9734335454547
 30
0.0
 11
-1.652980813087078
 21
-1.874108590873782
 31
0.0
210
0.0
220
0.0
230
1.0
 40
0.8833719423716219
 41
3.35498406121142
 42
6.066566818954158
  0
ELLIPSE
  5
7C
330
1F
100
AcDbEntity
  8
Layer0_
 62
   250
420
  2500134
370
    -3
100
AcDbEllipse
 10
835.9951264527108
 20
839.5977325416138
 30
0.0
 11
-1.652980813087078
 21
-1.874108590873782
 31
0.0
210
0.0
220
0.0
230
1.0
 40
0.8833719423716219
 41
0.0
 42
6.283185307179586
  0
ELLIPSE
  5
7D
330
1F
100
AcDbEntity
  8
Layer0_
 62
   250
420
  2500134
370
    -3
100
AcDbEllipse
 10
865.161858026398
 20
906.9299579700978
 30
0.0
 11
-4.499984590615662
 21
0.0135209365767186
 31
0.0
210
0.0
220
0.0
230
-1.0
 40
0.4948695974253213
 41
0.0
 42
6.283185307179586
  0
ELLIPSE
  5
7E
330
1F
100
AcDbEntity
  8
Layer0_
 62
   250
420
  2500134
370
    -3
100
AcDbEllipse
 10
865.1595875472127
 20
905.1911828001755
 30
0.0
 11
-4.499984590615662
 21
0.01352093657668206
 31
0.0
210
0.0
220
0.0
230
-1.0
 40
0.4948695974253319
 41
0.4013227266402543
 42
2.737216031970344
  0
LINE
  5
7F
330
1F
100
AcDbEntity
  8
Layer0_
 62
   250
420
  2500134
370
    -3
100
AcDbLine
 10
831.0675685262203
 20
805.948871456644
 30
0.0
 11
858.7314996141823
 21
877.3474201613838
 31
0.0
  0
LINE
  5
80
330
1F
100
AcDbEntity
  8
Layer0_
 62
   250
420
  2500134
370
    -3
100
AcDbLine
 10
796.4202747201276
 20
815.9194075354093
 30
0.0
 11
831.0675685262202
 21
805.9488714566438
 31
0.0
  0
LINE
  5
81
330
1F
100
AcDbEntity
  8
Layer0_
 62
   250
420
  2500134
370
    -3
100
AcDbLine
 10
795.7172535647231
 20
816.5437065315687
 30
0.0
 11
830.3645473708154
 21
806.5731704528033
 31
0.0
  0
LINE
  5
82
330
1F
100
AcDbEntity
  8
Layer0_
 62
   250
420
  2500134
370
    -3
100
AcDbLine
 10
858.0284784587773
 20
877.971719157543
 30
0.0
 11
830.364547370815
 21
806.5731704528037
 31
0.0
  0
LINE
  5
83
330
1F
100
AcDbEntity
  8
Layer0_
 62
   250
420
  2500134
370
    -3
100
AcDbLine
 10
823.3811846526851
 20
887.9422552363084
 30
0.0
 11
858.0284784587774
 21
877.9717191575429
 31
0.0
  0
LINE
  5
84
330
1F
100
AcDbEntity
  8
Layer0_
 62
   250
420
  2500134
370
    -3
100
AcDbLine
 10
857.8356112955274
 20
920.4647112672906
 30
0.0
 11
892.4829051016197
 21
910.4941751885251
 31
0.0
  0
LINE
  5
85
330
1F
100
AcDbEntity
  8
Layer0_
 62
   250
420
  2500134
370
    -3
100
AcDbLine
 10
892.4776846463113
 20
908.7562489404131
 30
0.0
 11
892.4829051016205
 21
910.4941751885251
 31
0.0
  0
LINE
  5
86
330
1F
100
AcDbEntity
  8
Layer0_
 62
   250
420
  2500134
370
    -3
100
AcDbLine
 10
862.2727076677502
 20
882.9155564211484
 30
0.0
 11
892.477684646311
 21
908.7562489404137
 31
0.0
  0
ELLIPSE
  5
87
330
1F
100
AcDbEntity
  8
Layer0_
 62
   250
420
  2500134
370
    -3
100
AcDbEllipse
 10
862.246605391204
 20
874.2259251805884
 30
0.0
 11
-2.765492373450697
 21
-9.609997499083258
 31
0.0
210
0.0
220
0.0
230
-1.0
 40
0.4331234251171587
 41
1.7749777012029
 42
2.560375864600346
  0
LINE
  5
88
330
1F
100
AcDbEntity
  8
Layer0_
 62
   250
420
  2500134
370
    -3
100
AcDbLine
 10
830.3645473708158
 20
806.5731704528031
 30
0.0
 11
831.0675685262202
 21
805.9488714566438
 31
0.0
  0
ELLIPSE
  5
89
330
1F
100
AcDbEntity
  8
Layer0_
 62
   250
420
  2500134
370
    -3
100
AcDbEllipse
 10
862.246605391204
 20
874.2259251805883
 30
0.0
 11
3.318590848140774
 21
11.5319969988997
 31
0.0
210
0.0
220
0.0
230
1.0
 40
0.4331234251171586
 41
0.5812167889894576
 42
1.366614952386893
  0
LINE
  5
8A
330
1F
100
AcDbEntity
  8
Layer0_
 62
   250
420
  2500134
370
    -3
100
AcDbLine
 10
827.630634316967
 20
894.6240187480252
 30
0.0
 11
862.2779281230594
 21
884.6534826692598
 31
0.0
  0
LINE
  5
8B
330
1F
100
AcDbEntity
  8
Layer0_
 62
   250
420
  2500134
370
    -3
100
AcDbLine
 10
892.4829051016204
 20
910.4941751885252
 30
0.0
 11
862.2779281230597
 21
884.6534826692604
 31
0.0
  0
LINE
  5
8C
330
1F
100
AcDbEntity
  8
A-DETL-THIN
 62
   250
420
  2500134
370
    -3
100
AcDbLine
 10
634.5886194846893
 20
491.5652287427899
 30
0.0
 11
632.8562547944159
 21
492.0637555572122
 31
0.0
  0
LINE
  5
8D
330
1F
100
AcDbEntity
  8
A-DETL-THIN
 62
   250
420
  2500134
370
    -3
100
AcDbLine
 10
634.4254799297017
 20
437.2550335832703
 30
0.0
 11
634.5886194846893
 21
491.5652287427899
 31
0.0
  0
ELLIPSE
  5
8E
330
1F
100
AcDbEntity
  8
A-DETL-THIN
 62
   250
420
  2500134
370
    -3
100
AcDbEllipse
 10
643.0873033810667
 20
434.7623995111596
 30
0.0
 11
6.500762986063132
 21
-7.598689400089455
 31
0.0
210
0.0
220
0.0
230
1.0
 40
0.7533311508707905
 41
3.860551057230163
 42
5.431347384025088
  0
ELLIPSE
  5
8F
330
1F
100
AcDbEntity
  8
A-DETL-THIN
 62
   250
420
  2500134
370
    -3
100
AcDbEllipse
 10
650.3892809303367
 20
412.5374874591188
 30
0.0
 11
4.499979721880027
 21
-0.01351724452402046
 31
0.0
210
0.0
220
0.0
230
-1.0
 40
0.4948699566716206
 41
0.0
 42
6.283185307179586
  0
ELLIPSE
  5
90
330
1F
100
AcDbEntity
  8
A-DETL-THIN
 62
   250
420
  2500134
370
    -3
100
AcDbEllipse
 10
650.3842651308081
 20
410.799364238442
 30
0.0
 11
4.499979721880027
 21
-0.01351724452402046
 31
0.0
210
0.0
220
0.0
230
1.0
 40
0.4948699566716206
 41
0.4034197487172212
 42
2.739605529595987
  0
ELLIPSE
  5
91
330
1F
100
AcDbEntity
  8
A-DETL-THIN
 62
   250
420
  2500134
370
    -3
100
AcDbEllipse
 10
609.9308444030637
 20
418.5143508113825
 30
0.0
 11
2.331038924464382
 21
-0.90317942506663
 31
0.0
210
0.0
220
0.0
230
1.0
 40
0.1827596618584734
 41
0.0
 42
6.283185307179586
  0
ELLIPSE
  5
92
330
1F
100
AcDbEntity
  8
A-DETL-THIN
 62
   250
420
  2500134
370
    -3
100
AcDbEllipse
 10
631.585403184389
 20
412.2827657182635
 30
0.0
 11
2.331038924464394
 21
-0.9031794250666343
 31
0.0
210
0.0
220
0.0
230
1.0
 40
0.1827596618584736
 41
0.0
 42
6.283185307179586
  0
ELLIPSE
  5
93
330
1F
100
AcDbEntity
  8
A-DETL-THIN
 62
   250
420
  2500134
370
    -3
100
AcDbEllipse
 10
622.7958214053668
 20
420.087026149591
 30
0.0
 11
2.331038924464382
 21
-0.90317942506663
 31
0.0
210
0.0
220
0.0
230
1.0
 40
0.1827596618584734
 41
0.0
 42
6.283185307179586
  0
ELLIPSE
  5
94
330
1F
100
AcDbEntity
  8
A-DETL-THIN
 62
   250
420
  2500134
370
    -3
100
AcDbEllipse
 10
601.141262624042
 20
426.3186112427101
 30
0.0
 11
2.331038924464437
 21
-0.9031794250666507
 31
0.0
210
0.0
220
0.0
230
1.0
 40
0.1827596618584734
 41
0.0
 42
6.283185307179586
  0
ELLIPSE
  5
95
330
1F
100
AcDbEntity
  8
A-DETL-THIN
 62
   250
420
  2500134
370
    -3
100
AcDbEllipse
 10
677.5312777069473
 20
492.8968570412376
 30
0.0
 11
-1.659518030341564
 21
-1.869658859302996
 31
0.0
210
0.0
220
0.0
230
-1.0
 40
0.8826645275068444
 41
0.0
 42
6.283185307179586
  0
ELLIPSE
  5
96
330
1F
100
AcDbEntity
  8
A-DETL-THIN
 62
   250
420
  2500134
370
    -3
100
AcDbEllipse
 10
678.2342988623517
 20
492.2725580450788
 30
0.0
 11
-1.659518030341584
 21
-1.869658859302957
 31
0.0
210
0.0
220
0.0
230
-1.0
 40
0.882664527506853
 41
0.2140276986153488
 42
2.926206705566856
  0
ELLIPSE
  5
97
330
1F
100
AcDbEntity
  8
A-DETL-THIN
 62
   250
420
  2500134
370
    -3
100
AcDbEllipse
 10
699.1858364882733
 20
486.6652719481183
 30
0.0
 11
-1.65951803034156
 21
-1.869658859303001
 31
0.0
210
0.0
220
0.0
230
-1.0
 40
0.8826645275068447
 41
0.0
 42
6.283185307179586
  0
ELLIPSE
  5
98
330
1F
100
AcDbEntity
  8
A-DETL-THIN
 62
   250
420
  2500134
370
    -3
100
AcDbEllipse
 10
699.8888576436768
 20
486.0409729519599
 30
0.0
 11
-1.659518030341576
 21
-1.869658859302968
 31
0.0
210
0.0
220
0.0
230
-1.0
 40
0.8826645275068519
 41
0.2140284763272468
 42
2.925425182951503
  0
ELLIPSE
  5
99
330
1F
100
AcDbEntity
  8
A-DETL-THIN
 62
   250
420
  2500134
370
    -3
100
AcDbEllipse
 10
668.6530451171076
 20
469.9775856328361
 30
0.0
 11
-1.659518030342211
 21
-1.869658859302037
 31
0.0
210
0.0
220
0.0
230
-1.0
 40
0.8826645275069663
 41
0.0
 42
6.283185307179586
  0
ELLIPSE
  5
9A
330
1F
100
AcDbEntity
  8
A-DETL-THIN
 62
   250
420
  2500134
370
    -3
100
AcDbEllipse
 10
669.3560662725115
 20
469.3532866366767
 30
0.0
 11
-1.659518030342227
 21
-1.869658859302004
 31
0.0
210
0.0
220
0.0
230
-1.0
 40
0.8826645275069734
 41
0.214028476144919
 42
2.925425182781341
  0
ELLIPSE
  5
9B
330
1F
100
AcDbEntity
  8
A-DETL-THIN
 62
   250
420
  2500134
370
    -3
100
AcDbEllipse
 10
690.3076038984328
 20
463.7460005397162
 30
0.0
 11
-1.659518030342071
 21
-1.869658859302133
 31
0.0
210
0.0
220
0.0
230
-1.0
 40
0.88266452750696
 41
0.0
 42
6.283185307179586
  0
ELLIPSE
  5
9C
330
1F
100
AcDbEntity
  8
A-DETL-THIN
 62
   250
420
  2500134
370
    -3
100
AcDbEllipse
 10
691.0106250538374
 20
463.1217015435579
 30
0.0
 11
-1.659518030342087
 21
-1.8696588593021
 31
0.0
210
0.0
220
0.0
230
-1.0
 40
0.8826645275069671
 41
0.2140284761713599
 42
2.925425182805111
  0
ELLIPSE
  5
9D
330
1F
100
AcDbEntity
  8
A-DETL-THIN
 62
   250
420
  2500134
370
    -3
100
AcDbEllipse
 10
616.5964465213005
 20
471.8883335727855
 30
0.0
 11
-0.6827741176822935
 21
-2.427778915824342
 31
0.0
210
0.0
220
0.0
230
-1.0
 40
0.4309459945119786
 41
4.123740174639179
 42
5.305880021586468
  0
ELLIPSE
  5
9E
330
1F
100
AcDbEntity
  8
A-DETL-THIN
 62
   250
420
  2500134
370
    -3
100
AcDbEllipse
 10
618.3288112115739
 20
471.3898067583633
 30
0.0
 11
-0.682774117682296
 21
-2.427778915824344
 31
0.0
210
0.0
220
0.0
230
1.0
 40
0.4309459945119774
 41
0.0
 42
6.283185307179586
  0
ELLIPSE
  5
9F
330
1F
100
AcDbEntity
  8
A-DETL-THIN
 62
   250
420
  2500134
370
    -3
100
AcDbEllipse
 10
629.0894778702676
 20
482.5762603323836
 30
0.0
 11
-0.6827741176822937
 21
-2.427778915824347
 31
0.0
210
0.0
220
0.0
230
-1.0
 40
0.4309459945119777
 41
4.123740174639169
 42
5.305880021586288
  0
ELLIPSE
  5
A0
330
1F
100
AcDbEntity
  8
A-DETL-THIN
 62
   250
420
  2500134
370
    -3
100
AcDbEllipse
 10
630.8218425605409
 20
482.0777335179615
 30
0.0
 11
-0.6827741176822936
 21
-2.427778915824347
 31
0.0
210
0.0
220
0.0
230
1.0
 40
0.4309459945119777
 41
0.0
 42
6.283185307179586
  0
ELLIPSE
  5
A1
330
1F
100
AcDbEntity
  8
A-DETL-THIN
 62
   250
420
  2500134
370
    -3
100
AcDbEllipse
 10
616.5311906993054
 20
450.1642555089775
 30
0.0
 11
-0.6827741176822921
 21
-2.427778915824344
 31
0.0
210
0.0
220
0.0
230
-1.0
 40
0.4309459945119784
 41
4.123740174639163
 42
5.305880021586381
  0
ELLIPSE
  5
A2
330
1F
100
AcDbEntity
  8
A-DETL-THIN
 62
   250
420
  2500134
370
    -3
100
AcDbEllipse
 10
618.2635553895788
 20
449.6657286945552
 30
0.0
 11
-0.6827741176822923
 21
-2.427778915824346
 31
0.0
210
0.0
220
0.0
230
1.0
 40
0.4309459945119783
 41
0.0
 42
6.283185307179586
  0
ELLIPSE
  5
A3
330
1F
100
AcDbEntity
  8
A-DETL-THIN
 62
   250
420
  2500134
370
    -3
100
AcDbEllipse
 10
629.0242220482725
 20
460.8521822685757
 30
0.0
 11
-0.6827741176822921
 21
-2.427778915824344
 31
0.0
210
0.0
220
0.0
230
-1.0
 40
0.4309459945119784
 41
4.123740174639087
 42
5.305880021586386
  0
ELLIPSE
  5
A4
330
1F
100
AcDbEntity
  8
A-DETL-THIN
 62
   250
420
  2500134
370
    -3
100
AcDbEllipse
 10
630.7565867385458
 20
460.3536554541534
 30
0.0
 11
-0.6827741176822923
 21
-2.427778915824346
 31
0.0
210
0.0
220
0.0
230
1.0
 40
0.4309459945119783
 41
0.0
 42
6.283185307179586
  0
ELLIPSE
  5
A5
330
1F
100
AcDbEntity
  8
A-DETL-THIN
 62
   250
420
  2500134
370
    -3
100
AcDbEllipse
 10
710.2941707675996
 20
433.0428691771099
 30
0.0
 11
1.978509408816261
 21
1.527958496874097
 31
0.0
210
0.0
220
0.0
230
-1.0
 40
0.0436621029155445
 41
0.0
 42
6.283185307179586
  0
ELLIPSE
  5
A6
330
1F
100
AcDbEntity
  8
A-DETL-THIN
 62
   250
420
  2500134
370
    -3
100
AcDbEllipse
 10
707.4307966131655
 20
432.7772490020647
 30
0.0
 11
1.978509408816348
 21
1.527958496874116
 31
0.0
210
0.0
220
0.0
230
-1.0
 40
0.0436621029155552
 41
0.0
 42
6.283185307179586
  0
ELLIPSE
  5
A7
330
1F
100
AcDbEntity
  8
A-DETL-THIN
 62
   250
420
  2500134
370
    -3
100
AcDbEllipse
 10
722.7872021165664
 20
443.730795936708
 30
0.0
 11
1.978509408816262
 21
1.527958496874102
 31
0.0
210
0.0
220
0.0
230
-1.0
 40
0.0436621029155461
 41
0.0
 42
6.283185307179586
  0
ELLIPSE
  5
A8
330
1F
100
AcDbEntity
  8
A-DETL-THIN
 62
   250
420
  2500134
370
    -3
100
AcDbEllipse
 10
694.9377652641987
 20
422.0893222424671
 30
0.0
 11
1.978509408816348
 21
1.527958496874116
 31
0.0
210
0.0
220
0.0
230
-1.0
 40
0.0436621029155552
 41
0.0
 42
6.283185307179586
  0
LINE
  5
A9
330
1F
100
AcDbEntity
  8
A-DETL-THIN
 62
   250
420
  2500134
370
    -3
100
AcDbLine
 10
712.0816821170588
 20
433.7848429311728
 30
0.0
 11
732.0705322754061
 21
450.8855257465299
 31
0.0
  0
LINE
  5
AA
330
1F
100
AcDbEntity
  8
A-DETL-THIN
 62
   250
420
  2500134
370
    -3
100
AcDbLine
 10
712.0816821170599
 20
433.7848429311732
 30
0.0
 11
713.3039799127091
 21
432.2021079283832
 31
0.0
  0
LINE
  5
AB
330
1F
100
AcDbEntity
  8
A-DETL-THIN
 62
   250
420
  2500134
370
    -3
100
AcDbLine
 10
733.292830071056
 20
449.3027907437402
 30
0.0
 11
713.303979912709
 21
432.2021079283834
 31
0.0
  0
LINE
  5
AC
330
1F
100
AcDbEntity
  8
A-DETL-THIN
 62
   250
420
  2500134
370
    -3
100
AcDbLine
 10
732.0705322754069
 20
450.88552574653
 30
0.0
 11
733.2928300710557
 21
449.3027907437402
 31
0.0
  0
ELLIPSE
  5
AD
330
1F
100
AcDbEntity
  8
A-DETL-THIN
 62
   250
420
  2500134
370
    -3
100
AcDbEllipse
 10
678.118820580648
 20
424.6650559230417
 30
0.0
 11
6.5007629860632
 21
-7.598689400089532
 31
0.0
210
0.0
220
0.0
230
1.0
 40
0.7533311508707902
 41
5.386967742089828
 42
6.216745553454928
  0
LINE
  5
AE
330
1F
100
AcDbEntity
  8
A-DETL-THIN
 62
   250
420
  2500134
370
    -3
100
AcDbLine
 10
684.2251975839104
 20
416.758000328491
 30
0.0
 11
732.0705322754067
 21
450.8855257465299
 31
0.0
  0
LINE
  5
AF
330
1F
100
AcDbEntity
  8
A-DETL-THIN
 62
   250
420
  2500134
370
    -3
100
AcDbLine
 10
664.2363474255634
 20
399.6573175131342
 30
0.0
 11
712.0816821170597
 21
433.7848429311732
 31
0.0
  0
ELLIPSE
  5
B0
330
1F
100
AcDbEntity
  8
A-DETL-THIN
 62
   250
420
  2500134
370
    -3
100
AcDbEllipse
 10
658.1299704223015
 20
407.5643731076846
 30
0.0
 11
6.5007629860632
 21
-7.598689400089532
 31
0.0
210
0.0
220
0.0
230
1.0
 40
0.7533311508707902
 41
5.386967742089827
 42
6.216745553454928
  0
LINE
  5
B1
330
1F
100
AcDbEntity
  8
A-DETL-THIN
 62
   250
420
  2500134
370
    -3
100
AcDbLine
 10
657.714413855047
 20
397.263603119795
 30
0.0
 11
657.7196113440378
 21
398.9938837191704
 31
0.0
  0
LINE
  5
B2
330
1F
100
AcDbEntity
  8
A-DETL-THIN
 62
   250
420
  2500134
370
    -3
100
AcDbLine
 10
658.098640607394
 20
397.1347574203154
 30
0.0
 11
657.714359004756
 21
397.2453430725441
 31
0.0
  0
ELLIPSE
  5
B3
330
1F
100
AcDbEntity
  8
A-DETL-THIN
 62
   250
420
  2500134
370
    -3
100
AcDbEllipse
 10
658.1299633392499
 20
407.5623149089874
 30
0.0
 11
-7.800915583275806
 21
9.118427280107397
 31
0.0
210
0.0
220
0.0
230
-1.0
 40
0.7533311508707903
 41
3.208032407314447
 42
3.993430570711924
  0
LINE
  5
B4
330
1F
100
AcDbEntity
  8
A-DETL-THIN
 62
   250
420
  2500134
370
    -3
100
AcDbLine
 10
713.303979912709
 20
432.2021079283836
 30
0.0
 11
665.4576157431649
 21
398.0738481955266
 31
0.0
  0
LINE
  5
B5
330
1F
100
AcDbEntity
  8
A-DETL-THIN
 62
   250
420
  2500134
370
    -3
100
AcDbLine
 10
634.5886194846893
 20
491.5652287427899
 30
0.0
 11
614.5997693263421
 21
474.4645459274329
 31
0.0
  0
LINE
  5
B6
330
1F
100
AcDbEntity
  8
A-DETL-THIN
 62
   250
420
  2500134
370
    -3
100
AcDbLine
 10
614.5997693263423
 20
474.4645459274332
 30
0.0
 11
614.4554631749993
 21
426.4241105912182
 31
0.0
  0
LINE
  5
B7
330
1F
100
AcDbEntity
  8
A-DETL-THIN
 62
   250
420
  2500134
370
    -3
100
AcDbLine
 10
634.4254799297013
 20
437.2550335832709
 30
0.0
 11
619.92537572693
 21
424.850033756021
 31
0.0
  0
LINE
  5
B8
330
1F
100
AcDbEntity
  8
A-DETL-THIN
 62
   250
420
  2500134
370
    -3
100
AcDbLine
 10
612.7230984846948
 20
426.9226373951557
 30
0.0
 11
612.8674046360693
 21
474.963072741855
 31
0.0
  0
LINE
  5
B9
330
1F
100
AcDbEntity
  8
A-DETL-THIN
 62
   250
420
  2500134
370
    -3
100
AcDbLine
 10
632.8562547944161
 20
492.0637555572126
 30
0.0
 11
612.8674046360688
 21
474.9630727418555
 31
0.0
  0
LINE
  5
BA
330
1F
100
AcDbEntity
  8
A-DETL-THIN
 62
   250
420
  2500134
370
    -3
100
AcDbLine
 10
684.2251975839108
 20
416.7580003284903
 30
0.0
 11
664.2363474255635
 21
399.6573175131331
 31
0.0
  0
LINE
  5
BB
330
1F
100
AcDbEntity
  8
A-DETL-THIN
 62
   250
420
  2500134
370
    -3
100
AcDbLine
 10
646.5742394849012
 20
431.6166793172632
 30
0.0
 11
681.2215332909936
 21
421.6461432384979
 31
0.0
  0
LINE
  5
BC
330
1F
100
AcDbEntity
  8
A-DETL-THIN
 62
   250
420
  2500134
370
    -3
100
AcDbLine
 10
708.8854643789552
 20
493.0446919432383
 30
0.0
 11
681.2215332909936
 21
421.6461432384978
 31
0.0
  0
LINE
  5
BD
330
1F
100
AcDbEntity
  8
A-DETL-THIN
 62
   250
420
  2500134
370
    -3
100
AcDbLine
 10
674.2381705728626
 20
503.0152280220042
 30
0.0
 11
708.885464378955
 21
493.0446919432388
 31
0.0
  0
LINE
  5
BE
330
1F
100
AcDbEntity
  8
A-DETL-THIN
 62
   250
420
  2500134
370
    -3
100
AcDbLine
 10
674.238170572863
 20
503.0152280220043
 30
0.0
 11
646.5742394849015
 21
431.6166793172638
 31
0.0
  0
LINE
  5
BF
330
1F
100
AcDbEntity
  8
A-DETL-THIN
 62
   250
420
  2500134
370
    -3
100
AcDbLine
 10
681.9245544463968
 20
421.0218442423399
 30
0.0
 11
709.5884855343597
 21
492.4203929470794
 31
0.0
  0
LINE
  5
C0
330
1F
100
AcDbEntity
  8
A-DETL-THIN
 62
   250
420
  2500134
370
    -3
100
AcDbLine
 10
618.8641773567831
 20
406.6846727146747
 30
0.0
 11
653.5114711628755
 21
396.7141366359093
 31
0.0
  0
LINE
  5
C1
330
1F
100
AcDbEntity
  8
A-DETL-THIN
 62
   250
420
  2500134
370
    -3
100
AcDbLine
 10
626.1350361232604
 20
421.0250421929641
 30
0.0
 11
653.5114711628762
 21
396.7141366359101
 31
0.0
  0
LINE
  5
C2
330
1F
100
AcDbEntity
  8
A-DETL-THIN
 62
   250
420
  2500134
370
    -3
100
AcDbLine
 10
591.4877423171678
 20
430.9955782717291
 30
0.0
 11
626.1350361232603
 21
421.0250421929637
 31
0.0
  0
LINE
  5
C3
330
1F
100
AcDbEntity
  8
A-DETL-THIN
 62
   250
420
  2500134
370
    -3
100
AcDbLine
 10
618.8641773567831
 20
406.6846727146747
 30
0.0
 11
591.4877423171672
 21
430.9955782717287
 31
0.0
  0
LINE
  5
C4
330
1F
100
AcDbEntity
  8
A-DETL-THIN
 62
   250
420
  2500134
370
    -3
100
AcDbLine
 10
592.1981463112719
 20
432.8290781460541
 30
0.0
 11
626.8454401173643
 21
422.8585420672888
 31
0.0
  0
LINE
  5
C5
330
1F
100
AcDbEntity
  8
A-DETL-THIN
 62
   250
420
  2500134
370
    -3
100
AcDbLine
 10
654.2218751569812
 20
398.5476365102354
 30
0.0
 11
626.8454401173651
 21
422.8585420672893
 31
0.0
  0
ELLIPSE
  5
C6
330
1F
100
AcDbEntity
  8
A-DETL-THIN
 62
   250
420
  2500134
370
    -3
100
AcDbEllipse
 10
643.0591337078787
 20
434.7381742980586
 30
0.0
 11
2.765492373450692
 21
9.609997499083249
 31
0.0
210
0.0
220
0.0
230
1.0
 40
0.4331234251171585
 41
3.728444391010322
 42
4.508207605976705
  0
ELLIPSE
  5
C7
330
1F
100
AcDbEntity
  8
A-DETL-THIN
 62
   250
420
  2500134
370
    -3
100
AcDbEllipse
 10
623.1266013214112
 20
417.6856719606254
 30
0.0
 11
3.318590848140824
 21
11.53199699889987
 31
0.0
210
0.0
220
0.0
230
1.0
 40
0.4331234251171581
 41
2.937411279181786
 42
3.141642346708146
  0
LINE
  5
C8
330
1F
100
AcDbEntity
  8
A-DETL-THIN
 62
   250
420
  2500134
370
    -3
100
AcDbLine
 10
592.1981463112718
 20
432.829078146054
 30
0.0
 11
591.4877423171674
 21
430.9955782717291
 31
0.0
  0
LINE
  5
C9
330
1F
100
AcDbEntity
  8
A-DETL-THIN
 62
   250
420
  2500134
370
    -3
100
AcDbLine
 10
677.7084615023848
 20
416.0945665345263
 30
0.0
 11
657.7196113440375
 21
398.9938837191692
 31
0.0
  0
ELLIPSE
  5
CA
330
1F
100
AcDbEntity
  8
A-DETL-THIN
 62
   250
420
  2500134
370
    -3
100
AcDbEllipse
 10
677.7064275139721
 20
424.7676382192931
 30
0.0
 11
3.318590848140851
 21
11.53199699889997
 31
0.0
210
0.0
220
0.0
230
1.0
 40
0.4331234251171585
 41
3.949789676923415
 42
4.508207605976704
  0
LINE
  5
CB
330
1F
100
AcDbEntity
  8
A-DETL-THIN
 62
   250
420
  2500134
370
    -3
100
AcDbLine
 10
709.5884855343597
 20
492.4203929470796
 30
0.0
 11
708.8854643789552
 21
493.0446919432388
 31
0.0
  0
ELLIPSE
  5
CC
330
1F
100
AcDbEntity
  8
A-DETL-THIN
 62
   250
420
  2500134
370
    -3
100
AcDbEllipse
 10
677.7064275139721
 20
424.7676382192931
 30
0.0
 11
-2.765492373450692
 21
-9.609997499083249
 31
0.0
210
0.0
220
0.0
230
-1.0
 40
0.4331234251171585
 41
4.916570354792674
 42
5.696333569759057
  0
LINE
  5
CD
330
1F
100
AcDbEntity
  8
A-DETL-THIN
 62
   250
420
  2500134
370
    -3
100
AcDbLine
 10
677.7084845377717
 20
416.1022351767128
 30
0.0
 11
657.7196343794227
 21
399.0015523613543
 31
0.0
  0
ELLIPSE
  5
CE
330
1F
100
AcDbEntity
  8
A-DETL-THIN
 62
   250
420
  2500134
370
    -3
100
AcDbEllipse
 10
657.7738951275038
 20
407.7151358818598
 30
0.0
 11
-2.765492373450712
 21
-9.609997499083311
 31
0.0
210
0.0
220
0.0
230
-1.0
 40
0.4331234251171581
 41
5.707603466621615
 42
6.487366681587599
  0
LINE
  5
CF
330
1F
100
AcDbEntity
  8
A-DETL-THIN
 62
   250
420
  2500134
370
    -3
100
AcDbLine
 10
626.845440117364
 20
422.8585420672883
 30
0.0
 11
626.1350361232596
 21
421.0250421929634
 31
0.0
  0
ELLIPSE
  5
D0
330
1F
100
AcDbEntity
  8
A-DETL-THIN
 62
   250
420
  2500134
370
    -3
100
AcDbEllipse
 10
657.7738951275038
 20
407.7151358818598
 30
0.0
 11
3.318590848140824
 21
11.53199699889987
 31
0.0
210
0.0
220
0.0
230
1.0
 40
0.4331234251171581
 41
2.937411279181786
 42
3.718113659813294
  0
LINE
  5
D1
330
1F
100
AcDbEntity
  8
A-DETL-THIN
 62
   250
420
  2500134
370
    -3
100
AcDbLine
 10
651.7888006277045
 20
400.7082828272202
 30
0.0
 11
657.7196343794227
 21
399.0015523613542
 31
0.0
  0
LINE
  5
D2
330
1F
100
AcDbEntity
  8
A-DETL-THIN
 62
   250
420
  2500134
370
    -3
100
AcDbLine
 10
643.0611907316792
 20
426.0727712554777
 30
0.0
 11
677.7084845377717
 21
416.1022351767123
 31
0.0
  0
LINE
  5
D3
330
1F
100
AcDbEntity
  8
A-DETL-THIN
 62
   250
420
  2500134
370
    -3
100
AcDbLine
 10
643.0612010522693
 20
426.072768285637
 30
0.0
 11
632.9586901786819
 21
417.4299582830932
 31
0.0
  0
LINE
  5
D4
330
1F
100
AcDbEntity
  8
A-DETL-THIN
 62
   250
420
  2500134
370
    -3
100
AcDbLine
 10
612.8674046360691
 20
474.9630727418548
 30
0.0
 11
614.5997693263423
 21
474.4645459274327
 31
0.0
  0
LINE
  5
D5
330
1F
100
AcDbEntity
  8
A-DETL-THIN
 62
   250
420
  2500134
370
    -3
100
AcDbLine
 10
619.8080234456252
 20
406.1536712286393
 30
0.0
 11
654.4553071292695
 21
396.1831380628354
 31
0.0
  0
LINE
  5
D6
330
1F
100
AcDbEntity
  8
Layer0_
 62
   250
420
  2500134
370
    -3
100
AcDbLine
 10
990.016425896228
 20
634.8753566837141
 30
0.0
 11
942.1710912047306
 21
600.7478312656772
 31
0.0
  0
ELLIPSE
  5
D7
330
1F
100
AcDbEntity
  8
Layer0_
 62
   250
420
  2500134
370
    -3
100
AcDbEllipse
 10
997.3440783001428
 20
625.3868899702535
 30
0.0
 11
7.800915583275622
 21
-9.118427280107179
 31
0.0
210
0.0
220
0.0
230
1.0
 40
0.7533311508707898
 41
2.289754736467673
 42
3.075152899865108
  0
LINE
  5
D8
330
1F
100
AcDbEntity
  8
Layer0_
 62
   250
420
  2500134
370
    -3
100
AcDbLine
 10
1049.730624243547
 20
620.7480574296186
 30
0.0
 11
997.3754010319986
 21
635.8144474589257
 31
0.0
  0
LINE
  5
D9
330
1F
100
AcDbEntity
  8
Layer0_
 62
   250
420
  2500134
370
    -3
100
AcDbLine
 10
1049.730624243547
 20
620.7480574296185
 30
0.0
 11
1049.725403788237
 21
619.0101311815065
 31
0.0
  0
ELLIPSE
  5
DA
330
1F
100
AcDbEntity
  8
Layer0_
 62
   250
420
  2500134
370
    -3
100
AcDbEllipse
 10
943.9082274380366
 20
601.4476271195572
 30
0.0
 11
-1.979821079787463
 21
-1.528978326599859
 31
0.0
210
0.0
220
0.0
230
1.0
 40
0.0436093601031722
 41
0.0
 42
6.283185307179586
  0
ELLIPSE
  5
DB
330
1F
100
AcDbEntity
  8
Layer0_
 62
   250
420
  2500134
370
    -3
100
AcDbEllipse
 10
959.2814983452275
 20
612.4153433949542
 30
0.0
 11
-1.979821079787411
 21
-1.528978326599802
 31
0.0
210
0.0
220
0.0
230
1.0
 40
0.043609360103172
 41
0.0
 42
6.283185307179586
  0
ELLIPSE
  5
DC
330
1F
100
AcDbEntity
  8
Layer0_
 62
   250
420
  2500134
370
    -3
100
AcDbEllipse
 10
931.4151779758402
 20
590.7596848638905
 30
0.0
 11
-1.979821079787537
 21
-1.528978326599893
 31
0.0
210
0.0
220
0.0
230
1.0
 40
0.0436093601031732
 41
0.0
 42
6.283185307179586
  0
ELLIPSE
  5
DD
330
1F
100
AcDbEntity
  8
Layer0_
 62
   250
420
  2500134
370
    -3
100
AcDbEllipse
 10
946.788448883031
 20
601.7274011392875
 30
0.0
 11
-1.979821079787436
 21
-1.528978326599838
 31
0.0
210
0.0
220
0.0
230
1.0
 40
0.0436093601031661
 41
0.0
 42
6.283185307179586
  0
ELLIPSE
  5
DE
330
1F
100
AcDbEntity
  8
Layer0_
 62
   250
420
  2500134
370
    -3
100
AcDbEllipse
 10
1022.414268663665
 20
617.1844524623484
 30
0.0
 11
4.499981330238657
 21
-0.01351353621246063
 31
0.0
210
0.0
220
0.0
230
-1.0
 40
0.49487031940528
 41
0.0
 42
6.283185307179586
  0
ELLIPSE
  5
DF
330
1F
100
AcDbEntity
  8
Layer0_
 62
   250
420
  2500134
370
    -3
100
AcDbEllipse
 10
1022.407346296771
 20
615.4450702100161
 30
0.0
 11
4.499981330238657
 21
-0.01351353621242865
 31
0.0
210
0.0
220
0.0
230
-1.0
 40
0.4948703194052767
 41
3.544424650904554
 42
5.879981770551116
  0
LINE
  5
E0
330
1F
100
AcDbEntity
  8
Layer0_
 62
   250
420
  2500134
370
    -3
100
AcDbLine
 10
923.4035164470363
 20
582.065737331409
 30
0.0
 11
971.2488511385333
 21
616.1932627494465
 31
0.0
  0
LINE
  5
E1
330
1F
100
AcDbEntity
  8
Layer0_
 62
   250
420
  2500134
370
    -3
100
AcDbLine
 10
942.171091204731
 20
600.7478312656764
 30
0.0
 11
922.1822410463839
 21
583.6471484503194
 31
0.0
  0
LINE
  5
E2
330
1F
100
AcDbEntity
  8
Layer0_
 62
   250
420
  2500134
370
    -3
100
AcDbLine
 10
970.0275757378809
 20
617.774673868357
 30
0.0
 11
922.1822410463834
 21
583.6471484503202
 31
0.0
  0
LINE
  5
E3
330
1F
100
AcDbEntity
  8
Layer0_
 62
   250
420
  2500134
370
    -3
100
AcDbLine
 10
990.0164258962282
 20
634.8753566837141
 30
0.0
 11
970.0275757378809
 21
617.7746738683569
 31
0.0
  0
LINE
  5
E4
330
1F
100
AcDbEntity
  8
Layer0_
 62
   250
420
  2500134
370
    -3
100
AcDbLine
 10
1049.730624243547
 20
620.7480574296185
 30
0.0
 11
1029.741774085199
 21
603.6473746142615
 31
0.0
  0
LINE
  5
E5
330
1F
100
AcDbEntity
  8
Layer0_
 62
   250
420
  2500134
370
    -3
100
AcDbLine
 10
1029.73655362989
 20
601.9094483661493
 30
0.0
 11
1029.741774085199
 21
603.6473746142613
 31
0.0
  0
LINE
  5
E6
330
1F
100
AcDbEntity
  8
Layer0_
 62
   250
420
  2500134
370
    -3
100
AcDbLine
 10
1049.725403788237
 20
619.0101311815063
 30
0.0
 11
1029.73655362989
 21
601.9094483661491
 31
0.0
  0
LINE
  5
E7
330
1F
100
AcDbEntity
  8
Layer0_
 62
   250
420
  2500134
370
    -3
100
AcDbLine
 10
977.3813304183421
 20
616.9758383954564
 30
0.0
 11
1029.73655362989
 21
601.9094483661498
 31
0.0
  0
ELLIPSE
  5
E8
330
1F
100
AcDbEntity
  8
Layer0_
 62
   250
420
  2500134
370
    -3
100
AcDbEllipse
 10
977.3552281417957
 20
608.2862071548965
 30
0.0
 11
-6.50076298606314
 21
7.598689400089457
 31
0.0
210
0.0
220
0.0
230
-1.0
 40
0.75333115087079
 41
0.0664397537246846
 42
0.8518379171221306
  0
LINE
  5
E9
330
1F
100
AcDbEntity
  8
Layer0_
 62
   250
420
  2500134
370
    -3
100
AcDbLine
 10
922.1822410463835
 20
583.6471484503192
 30
0.0
 11
923.403516447036
 21
582.065737331409
 31
0.0
  0
ELLIPSE
  5
EA
330
1F
100
AcDbEntity
  8
Layer0_
 62
   250
420
  2500134
370
    -3
100
AcDbEllipse
 10
977.3552281417956
 20
608.2862071548965
 30
0.0
 11
7.800915583275622
 21
-9.118427280107179
 31
0.0
210
0.0
220
0.0
230
1.0
 40
0.7533311508707898
 41
2.289754736467673
 42
3.075152899865108
  0
LINE
  5
EB
330
1F
100
AcDbEntity
  8
Layer0_
 62
   250
420
  2500134
370
    -3
100
AcDbLine
 10
997.3754010319984
 20
635.814447458925
 30
0.0
 11
977.3865508736511
 21
618.713764643568
 31
0.0
  0
LINE
  5
EC
330
1F
100
AcDbEntity
  8
Layer0_
 62
   250
420
  2500134
370
    -3
100
AcDbLine
 10
1029.741774085199
 20
603.6473746142614
 30
0.0
 11
977.3865508736511
 21
618.7137646435685
 31
0.0
  0
ELLIPSE
  5
ED
330
1F
100
AcDbEntity
  8
A-DETL-THIN
 62
   250
420
  2500134
370
    -3
100
AcDbEllipse
 10
623.9767965867679
 20
710.0678074346575
 30
0.0
 11
-6.500762986063132
 21
7.598689400089449
 31
0.0
210
0.0
220
0.0
230
-1.0
 40
0.7533311508707902
 41
5.564226903539217
 42
5.816907158680219
  0
LINE
  5
EE
330
1F
100
AcDbEntity
  8
A-DETL-THIN
 62
   250
420
  2500134
370
    -3
100
AcDbLine
 10
615.5965476751002
 20
714.6536978032851
 30
0.0
 11
613.8172045209856
 21
715.1657437248887
 31
0.0
  0
ELLIPSE
  5
EF
330
1F
100
AcDbEntity
  8
A-DETL-THIN
 62
   250
420
  2500134
370
    -3
100
AcDbEllipse
 10
623.9767965867679
 20
710.0678074346575
 30
0.0
 11
-7.800915583275795
 21
9.118427280107381
 31
0.0
210
0.0
220
0.0
230
-1.0
 40
0.7533311508707901
 41
5.564226903539216
 42
5.774097495801066
  0
LINE
  5
F0
330
1F
100
AcDbEntity
  8
A-DETL-THIN
 62
   250
420
  2500134
370
    -3
100
AcDbLine
 10
613.5826084451292
 20
713.0589683211904
 30
0.0
 11
613.425994472341
 21
660.9211809680514
 31
0.0
  0
LINE
  5
F1
330
1F
100
AcDbEntity
  8
A-DETL-THIN
 62
   250
420
  2500134
370
    -3
100
AcDbLine
 10
613.4259944723412
 20
660.9211809680515
 30
0.0
 11
615.1583591626146
 21
660.4226541536293
 31
0.0
  0
LINE
  5
F2
330
1F
100
AcDbEntity
  8
A-DETL-THIN
 62
   250
420
  2500134
370
    -3
100
AcDbLine
 10
615.1583591626144
 20
660.4226541536298
 30
0.0
 11
615.3149731354024
 21
712.5604415067687
 31
0.0
  0
ELLIPSE
  5
F3
330
1F
100
AcDbEntity
  8
A-DETL-THIN
 62
   250
420
  2500134
370
    -3
100
AcDbEllipse
 10
670.8152941288115
 20
718.4520115065011
 30
0.0
 11
-4.499979698160202
 21
0.01351725368053073
 31
0.0
210
0.0
220
0.0
230
1.0
 40
0.4948699610285965
 41
0.0
 42
6.283185307179586
  0
ELLIPSE
  5
F4
330
1F
100
AcDbEntity
  8
A-DETL-THIN
 62
   250
420
  2500134
370
    -3
100
AcDbEllipse
 10
670.8100736630519
 20
716.7140852613962
 30
0.0
 11
4.4999796981602
 21
-0.01351725368051072
 31
0.0
210
0.0
220
0.0
230
-1.0
 40
0.4948699610285945
 41
3.543595995357558
 42
5.87987579928633
  0
ELLIPSE
  5
F5
330
1F
100
AcDbEntity
  8
A-DETL-THIN
 62
   250
420
  2500134
370
    -3
100
AcDbEllipse
 10
631.418167435597
 20
680.5980761379342
 30
0.0
 11
0.682774117682304
 21
2.427778915824331
 31
0.0
210
0.0
220
0.0
230
1.0
 40
0.4309459945119775
 41
0.0
 42
6.283185307179586
  0
ELLIPSE
  5
F6
330
1F
100
AcDbEntity
  8
A-DETL-THIN
 62
   250
420
  2500134
370
    -3
100
AcDbEllipse
 10
629.685802745324
 20
681.0966029523563
 30
0.0
 11
0.6827741176822953
 21
2.427778915824357
 31
0.0
210
0.0
220
0.0
230
-1.0
 40
0.4309459945119753
 41
0.9821475210489593
 42
2.164287367996867
  0
ELLIPSE
  5
F7
330
1F
100
AcDbEntity
  8
A-DETL-THIN
 62
   250
420
  2500134
370
    -3
100
AcDbEllipse
 10
618.9251360866301
 20
669.910149378336
 30
0.0
 11
0.6827741176822953
 21
2.427778915824357
 31
0.0
210
0.0
220
0.0
230
1.0
 40
0.4309459945119753
 41
0.0
 42
6.283185307179586
  0
ELLIPSE
  5
F8
330
1F
100
AcDbEntity
  8
A-DETL-THIN
 62
   250
420
  2500134
370
    -3
100
AcDbEllipse
 10
617.1927713963572
 20
670.408676192758
 30
0.0
 11
0.6827741176822953
 21
2.427778915824357
 31
0.0
210
0.0
220
0.0
230
-1.0
 40
0.4309459945119753
 41
0.9821475210490354
 42
2.164287367996867
  0
ELLIPSE
  5
F9
330
1F
100
AcDbEntity
  8
A-DETL-THIN
 62
   250
420
  2500134
370
    -3
100
AcDbEllipse
 10
631.4834232575919
 20
702.3221542017421
 30
0.0
 11
0.6827741176822953
 21
2.427778915824357
 31
0.0
210
0.0
220
0.0
230
1.0
 40
0.4309459945119753
 41
0.0
 42
6.283185307179586
  0
ELLIPSE
  5
FA
330
1F
100
AcDbEntity
  8
A-DETL-THIN
 62
   250
420
  2500134
370
    -3
100
AcDbEllipse
 10
629.751058567319
 20
702.8206810161643
 30
0.0
 11
0.6827741176822953
 21
2.427778915824357
 31
0.0
210
0.0
220
0.0
230
-1.0
 40
0.4309459945119753
 41
0.9821475210490477
 42
2.164287367996867
  0
ELLIPSE
  5
FB
330
1F
100
AcDbEntity
  8
A-DETL-THIN
 62
   250
420
  2500134
370
    -3
100
AcDbEllipse
 10
618.990391908625
 20
691.6342274421438
 30
0.0
 11
0.6827741176822953
 21
2.427778915824357
 31
0.0
210
0.0
220
0.0
230
1.0
 40
0.4309459945119753
 41
0.0
 42
6.283185307179586
  0
ELLIPSE
  5
FC
330
1F
100
AcDbEntity
  8
A-DETL-THIN
 62
   250
420
  2500134
370
    -3
100
AcDbEllipse
 10
617.2580272183521
 20
692.1327542565659
 30
0.0
 11
0.6827741176822953
 21
2.427778915824357
 31
0.0
210
0.0
220
0.0
230
-1.0
 40
0.4309459945119753
 41
0.9821475210490354
 42
2.164287367996867
  0
LINE
  5
FD
330
1F
100
AcDbEntity
  8
A-DETL-THIN
 62
   250
420
  2500134
370
    -3
100
AcDbLine
 10
615.1583591626144
 20
660.4226541536298
 30
0.0
 11
635.1472093209616
 21
677.5233369689868
 31
0.0
  0
LINE
  5
FE
330
1F
100
AcDbEntity
  8
A-DETL-THIN
 62
   250
420
  2500134
370
    -3
100
AcDbLine
 10
635.1472093209613
 20
677.5233369689868
 30
0.0
 11
635.2613383553544
 21
715.5176181948018
 31
0.0
  0
LINE
  5
FF
330
1F
100
AcDbEntity
  8
A-DETL-THIN
 62
   250
420
  2500134
370
    -3
100
AcDbLine
 10
615.3149731354024
 20
712.5604415067686
 30
0.0
 11
622.8484146077495
 21
719.0053841676083
 31
0.0
  0
ELLIPSE
  5
100
330
1F
100
AcDbEntity
  8
A-DETL-THIN
 62
   250
420
  2500134
370
    -3
100
AcDbEllipse
 10
643.965646745115
 20
727.1684902500147
 30
0.0
 11
7.800915583275795
 21
-9.118427280107381
 31
0.0
210
0.0
220
0.0
230
1.0
 40
0.7533311508707901
 41
2.289754730435288
 42
3.141580482592615
  0
ELLIPSE
  5
101
330
1F
100
AcDbEntity
  8
A-DETL-THIN
 62
   250
420
  2500134
370
    -3
100
AcDbEllipse
 10
623.9767965867679
 20
710.0678074346575
 30
0.0
 11
-7.800915583275795
 21
9.118427280107381
 31
0.0
210
0.0
220
0.0
230
-1.0
 40
0.7533311508707901
 41
5.774097495801066
 42
7.135023230333997
  0
LINE
  5
102
330
1F
100
AcDbEntity
  8
A-DETL-THIN
 62
   250
420
  2500134
370
    -3
100
AcDbLine
 10
624.0081193813256
 20
720.4953649052853
 30
0.0
 11
643.9969695396728
 21
737.5960477206424
 31
0.0
  0
ELLIPSE
  5
103
330
1F
100
AcDbEntity
  8
A-DETL-THIN
 62
   250
420
  2500134
370
    -3
100
AcDbEllipse
 10
623.9767965867679
 20
710.0678074346575
 30
0.0
 11
-6.500762986063132
 21
7.598689400089449
 31
0.0
210
0.0
220
0.0
230
-1.0
 40
0.7533311508707902
 41
5.816907158680219
 42
7.135023230334137
  0
LINE
  5
104
330
1F
100
AcDbEntity
  8
A-DETL-THIN
 62
   250
420
  2500134
370
    -3
100
AcDbLine
 10
624.0028989155659
 20
718.7574386601805
 30
0.0
 11
678.1392954866012
 21
703.1784757094886
 31
0.0
  0
LINE
  5
105
330
1F
100
AcDbEntity
  8
A-DETL-THIN
 62
   250
420
  2500134
370
    -3
100
AcDbLine
 10
678.1392954866006
 20
703.1784757094886
 30
0.0
 11
678.1445159523603
 21
704.9164019545933
 31
0.0
  0
LINE
  5
106
330
1F
100
AcDbEntity
  8
A-DETL-THIN
 62
   250
420
  2500134
370
    -3
100
AcDbLine
 10
678.1445159523603
 20
704.9164019545935
 30
0.0
 11
624.0081193813247
 21
720.4953649052857
 31
0.0
  0
LINE
  5
107
330
1F
100
AcDbEntity
  8
A-DETL-THIN
 62
   250
420
  2500134
370
    -3
100
AcDbLine
 10
698.1333661107077
 20
722.0170847699505
 30
0.0
 11
643.9969695396721
 21
737.5960477206427
 31
0.0
  0
LINE
  5
108
330
1F
100
AcDbEntity
  8
A-DETL-THIN
 62
   250
420
  2500134
370
    -3
100
AcDbLine
 10
698.128145644948
 20
720.2791585248459
 30
0.0
 11
698.1333661107077
 21
722.0170847699507
 31
0.0
  0
LINE
  5
109
330
1F
100
AcDbEntity
  8
A-DETL-THIN
 62
   250
420
  2500134
370
    -3
100
AcDbLine
 10
678.1392954866006
 20
703.1784757094886
 30
0.0
 11
698.128145644948
 21
720.2791585248456
 31
0.0
  0
LINE
  5
10A
330
1F
100
AcDbEntity
  8
A-DETL-THIN
 62
   250
420
  2500134
370
    -3
100
AcDbLine
 10
678.1445159523603
 20
704.9164019545933
 30
0.0
 11
698.1333661107076
 21
722.0170847699503
 31
0.0
  0
LINE
  5
10B
330
1F
100
AcDbEntity
  8
A-DETL-THIN
 62
   250
420
  2500134
370
    -3
100
AcDbLine
 10
636.1647380191098
 20
736.2869233965928
 30
0.0
 11
616.1758924418975
 21
719.1862445004474
 31
0.0
  0
LINE
  5
10C
330
1F
100
AcDbEntity
  8
Layer0_
 62
   250
420
  2500134
370
    -3
100
AcDbLine
 10
807.3382064014373
 20
873.9155645887893
 30
0.0
 11
816.8822731015541
 21
871.1690452818492
 31
0.0
  0
LINE
  5
10D
330
1F
100
AcDbEntity
  8
Layer0_
 62
   250
420
  2500134
370
    -3
100
AcDbLine
 10
852.3796883493565
 20
860.9538676863946
 30
0.0
 11
862.7738764911857
 21
857.9627068627647
 31
0.0
  0
LINE
  5
10E
330
1F
100
AcDbEntity
  8
Layer0_
 62
   250
420
  2500134
370
    -3
100
AcDbLine
 10
862.7738764911848
 20
857.9627068627649
 30
0.0
 11
875.3413907761309
 21
846.8024643978073
 31
0.0
  0
ELLIPSE
  5
10F
330
1F
100
AcDbEntity
  8
Layer0_
 62
   250
420
  2500134
370
    -3
100
AcDbEllipse
 10
836.6981476081177
 20
838.9734335454593
 30
0.0
 11
-1.652980813087078
 21
-1.874108590873782
 31
0.0
210
0.0
220
0.0
230
-1.0
 40
0.8833719423716219
 41
0.2175787144815122
 42
2.929967204537884
  0
ELLIPSE
  5
110
330
1F
100
AcDbEntity
  8
Layer0_
 62
   250
420
  2500134
370
    -3
100
AcDbEllipse
 10
837.0496581858198
 20
838.6612840473797
 30
0.0
 11
-1.652980813087078
 21
-1.874108590873782
 31
0.0
210
0.0
220
0.0
230
1.0
 40
0.8833719423716219
 41
3.46374617861446
 42
5.955066357663044
  0
ELLIPSE
  5
111
330
1F
100
AcDbEntity
  8
Layer0_
 62
   250
420
  2500134
370
    -3
100
AcDbEllipse
 10
806.1895820083023
 20
822.278775720984
 30
0.0
 11
-1.652980813086609
 21
-1.87410859087439
 31
0.0
210
0.0
220
0.0
230
-1.0
 40
0.8833719423715478
 41
0.2175787144812685
 42
2.929967204536299
  0
ELLIPSE
  5
112
330
1F
100
AcDbEntity
  8
Layer0_
 62
   250
420
  2500134
370
    -3
100
AcDbEllipse
 10
806.5410925860044
 20
821.9666262229044
 30
0.0
 11
-1.652980813086609
 21
-1.87410859087439
 31
0.0
210
0.0
220
0.0
230
1.0
 40
0.8833719423715478
 41
3.463746178614828
 42
5.955066357663812
  0
ELLIPSE
  5
113
330
1F
100
AcDbEntity
  8
Layer0_
 62
   250
420
  2500134
370
    -3
100
AcDbEllipse
 10
815.0435575830872
 20
845.205027629655
 30
0.0
 11
-1.652980813086965
 21
-1.874108590873884
 31
0.0
210
0.0
220
0.0
230
-1.0
 40
0.8833719423715929
 41
0.2175787144821077
 42
2.929967204538392
  0
ELLIPSE
  5
114
330
1F
100
AcDbEntity
  8
Layer0_
 62
   250
420
  2500134
370
    -3
100
AcDbEllipse
 10
815.3950681607894
 20
844.8928781315755
 30
0.0
 11
-1.652980813086964
 21
-1.874108590873884
 31
0.0
210
0.0
220
0.0
230
1.0
 40
0.8833719423715929
 41
3.463746178613933
 42
5.955066357663098
  0
ELLIPSE
  5
115
330
1F
100
AcDbEntity
  8
Layer0_
 62
   250
420
  2500134
370
    -3
100
AcDbEllipse
 10
827.8441720333307
 20
816.047181636788
 30
0.0
 11
-1.65298081308697
 21
-1.874108590874118
 31
0.0
210
0.0
220
0.0
230
-1.0
 40
0.8833719423715707
 41
0.2175787144819213
 42
2.929967204537871
  0
ELLIPSE
  5
116
330
1F
100
AcDbEntity
  8
Layer0_
 62
   250
420
  2500134
370
    -3
100
AcDbEllipse
 10
828.195682611033
 20
815.7350321387084
 30
0.0
 11
-1.65298081308697
 21
-1.874108590874118
 31
0.0
210
0.0
220
0.0
230
1.0
 40
0.8833719423715707
 41
3.463746178614374
 42
5.955066357663551
  0
ELLIPSE
  5
117
330
1F
100
AcDbEntity
  8
Layer0_
 62
   250
420
  2500134
370
    -3
100
AcDbEllipse
 10
678.2370069689302
 20
492.2610659337701
 30
0.0
 11
-1.660473014427801
 21
-1.86857444916369
 31
0.0
210
0.0
220
0.0
230
1.0
 40
0.8826845266434536
 41
3.352430894901755
 42
5.699219614775187
  0
ELLIPSE
  5
118
330
1F
100
AcDbEntity
  8
Layer0_
 62
   250
420
  2500134
370
    -3
100
AcDbEllipse
 10
678.5885175466326
 20
491.9489164356907
 30
0.0
 11
-1.660473014427802
 21
-1.86857444916369
 31
0.0
210
0.0
220
0.0
230
-1.0
 40
0.8826845266434535
 41
0.3313441508639273
 42
2.817960050732911
  0
ELLIPSE
  5
119
330
1F
100
AcDbEntity
  8
Layer0_
 62
   250
420
  2500134
370
    -3
100
AcDbEllipse
 10
669.358010796282
 20
469.3450371645283
 30
0.0
 11
-1.66047301442761
 21
-1.868574449163933
 31
0.0
210
0.0
220
0.0
230
1.0
 40
0.882684526643442
 41
3.35356293857022
 42
6.062871096270854
  0
ELLIPSE
  5
11A
330
1F
100
AcDbEntity
  8
Layer0_
 62
   250
420
  2500134
370
    -3
100
AcDbEllipse
 10
669.7095213739841
 20
469.032887666449
 30
0.0
 11
-1.660473014427606
 21
-1.868574449163937
 31
0.0
210
0.0
220
0.0
230
-1.0
 40
0.8826845266434431
 41
0.3295053719644136
 42
2.817427129695364
  0
ELLIPSE
  5
11B
330
1F
100
AcDbEntity
  8
Layer0_
 62
   250
420
  2500134
370
    -3
100
AcDbEllipse
 10
691.0125694250895
 20
463.1134521153
 30
0.0
 11
-1.66047301442761
 21
-1.868574449163933
 31
0.0
210
0.0
220
0.0
230
1.0
 40
0.882684526643442
 41
3.353569456943327
 42
6.062964642016956
  0
ELLIPSE
  5
11C
330
1F
100
AcDbEntity
  8
Layer0_
 62
   250
420
  2500134
370
    -3
100
AcDbEllipse
 10
691.3640800027916
 20
462.8013026172208
 30
0.0
 11
-1.660473014427611
 21
-1.868574449163933
 31
0.0
210
0.0
220
0.0
230
-1.0
 40
0.8826845266434421
 41
0.3295065238088557
 42
2.817417261494511
  0
ELLIPSE
  5
11D
330
1F
100
AcDbEntity
  8
Layer0_
 62
   250
420
  2500134
370
    -3
100
AcDbEllipse
 10
699.8915655977382
 20
486.029480884542
 30
0.0
 11
-1.660473014427799
 21
-1.868574449163692
 31
0.0
210
0.0
220
0.0
230
1.0
 40
0.8826845266434542
 41
3.352436546275612
 42
6.060579604175645
  0
ELLIPSE
  5
11E
330
1F
100
AcDbEntity
  8
Layer0_
 62
   250
420
  2500134
370
    -3
100
AcDbEllipse
 10
700.2430761754404
 20
485.7173313864624
 30
0.0
 11
-1.660473014427805
 21
-1.868574449163685
 31
0.0
210
0.0
220
0.0
230
-1.0
 40
0.8826845266434539
 41
0.3313469545903758
 42
2.817950068182379
  0
LINE
  5
11F
330
1F
100
AcDbEntity
  8
Layer0_
 62
   250
420
  2500134
370
    -3
100
AcDbLine
 10
698.1558820855867
 20
434.3613497975787
 30
0.0
 11
702.9436730499785
 21
430.1096810250075
 31
0.0
  0
LINE
  5
120
330
1F
100
AcDbEntity
  8
Layer0_
 62
   250
420
  2500134
370
    -3
100
AcDbLine
 10
701.4600788387833
 20
429.0514545159855
 30
0.0
 11
702.1449336647643
 21
430.8190138875368
 31
0.0
  0
LINE
  5
121
330
1F
100
AcDbEntity
  8
Layer0_
 62
   250
420
  2500134
370
    -3
100
AcDbLine
 10
718.0712965174768
 20
440.9000476725267
 30
0.0
 11
875.341390776131
 21
846.8024643978076
 31
0.0
  0
LINE
  5
122
330
1F
100
AcDbEntity
  8
Layer0_
 62
   250
420
  2500134
370
    -3
100
AcDbLine
 10
698.6705538530367
 20
434.4242358936887
 30
0.0
 11
862.7738764911852
 21
857.9627068627651
 31
0.0
  0
LINE
  5
123
330
1F
100
AcDbEntity
  8
Layer0_
 62
   250
420
  2500134
370
    -3
100
AcDbLine
 10
703.2683611343762
 20
430.3412770122856
 30
0.0
 11
698.6705538530371
 21
434.4242358936897
 31
0.0
  0
LINE
  5
124
330
1F
100
AcDbEntity
  8
Layer0_
 62
   250
420
  2500134
370
    -3
100
AcDbLine
 10
643.2348837632886
 20
450.3770936197135
 30
0.0
 11
807.338206401437
 21
873.9155645887895
 31
0.0
  0
LINE
  5
125
330
1F
100
AcDbEntity
  8
Layer0_
 62
   250
420
  2500134
370
    -3
100
AcDbLine
 10
698.6705538530368
 20
434.4242358936888
 30
0.0
 11
688.2763657112185
 21
437.4153967173157
 31
0.0
  0
LINE
  5
126
330
1F
100
AcDbEntity
  8
Layer0_
 62
   250
420
  2500134
370
    -3
100
AcDbLine
 10
652.7789504634167
 20
447.6305743127702
 30
0.0
 11
643.2348837632884
 21
450.3770936197134
 31
0.0
  0
LINE
  5
127
330
1F
100
AcDbEntity
  8
Layer0_
 62
   250
420
  2500134
370
    -3
100
AcDbLine
 10
643.2348837632886
 20
450.3770936197135
 30
0.0
 11
651.1274982411547
 21
443.3682699766061
 31
0.0
  0
LINE
  5
128
330
1F
100
AcDbEntity
  8
Layer0_
 62
   250
420
  2500134
370
    -3
100
AcDbLine
 10
667.4704102918377
 20
468.0656795189795
 30
0.0
 11
668.5926500088839
 21
470.9620967650012
 31
0.0
  0
LINE
  5
129
330
1F
100
AcDbEntity
  8
Layer0_
 62
   250
420
  2500134
370
    -3
100
AcDbLine
 10
676.3494064644864
 20
490.9817082882209
 30
0.0
 11
677.4716461815331
 21
493.8781255342436
 31
0.0
  0
LINE
  5
12A
330
1F
100
AcDbEntity
  8
Layer0_
 62
   250
420
  2500134
370
    -3
100
AcDbLine
 10
804.2715223987092
 20
821.1391756380904
 30
0.0
 11
805.3052340632906
 21
823.8071085647451
 31
0.0
  0
LINE
  5
12B
330
1F
100
AcDbEntity
  8
Layer0_
 62
   250
420
  2500134
370
    -3
100
AcDbLine
 10
813.1385705444222
 20
844.0243674384147
 30
0.0
 11
814.1983399977304
 21
846.7595535797925
 31
0.0
  0
LINE
  5
12C
330
1F
100
AcDbEntity
  8
Layer0_
 62
   250
420
  2500134
370
    -3
100
AcDbLine
 10
651.2773776168683
 20
443.7551001279083
 30
0.0
 11
644.4525766861428
 21
449.8156807196646
 31
0.0
  0
LINE
  5
12D
330
1F
100
AcDbEntity
  8
Layer0_
 62
   250
420
  2500134
370
    -3
100
AcDbLine
 10
644.4525766861435
 20
449.815680719665
 30
0.0
 11
652.7054003202646
 21
447.4407455730353
 31
0.0
  0
LINE
  5
12E
330
1F
100
AcDbEntity
  8
Layer0_
 62
   250
420
  2500134
370
    -3
100
AcDbLine
 10
688.202815568066
 20
437.225567977581
 30
0.0
 11
698.1558820855867
 21
434.3613497975787
 31
0.0
  0
LINE
  5
12F
330
1F
100
AcDbEntity
  8
Layer0_
 62
   250
420
  2500134
370
    -3
100
AcDbLine
 10
975.9877464404495
 20
576.1753894219955
 30
0.0
 11
955.3769675343939
 21
602.86397654495
 31
0.0
  0
LINE
  5
130
330
1F
100
AcDbEntity
  8
Layer0_
 62
   250
420
  2500134
370
    -3
100
AcDbLine
 10
955.3769675343935
 20
602.86397654495
 30
0.0
 11
969.4960940988827
 21
614.9430457808751
 31
0.0
  0
LINE
  5
131
330
1F
100
AcDbEntity
  8
Layer0_
 62
   250
420
  2500134
370
    -3
100
AcDbLine
 10
1001.231765768944
 20
610.1124019176658
 30
0.0
 11
1006.970464185886
 21
602.681447785799
 31
0.0
  0
LINE
  5
132
330
1F
100
AcDbEntity
  8
Layer0_
 62
   250
420
  2500134
370
    -3
100
AcDbLine
 10
1006.970464185887
 20
602.6814477857992
 30
0.0
 11
1001.476232360911
 21
597.9810715756287
 31
0.0
  0
LINE
  5
133
330
1F
100
AcDbEntity
  8
Layer0_
 62
   250
420
  2500134
370
    -3
100
AcDbLine
 10
1001.476232360911
 20
597.9810715756286
 30
0.0
 11
1002.086870061237
 21
597.1903660161735
 31
0.0
  0
LINE
  5
134
330
1F
100
AcDbEntity
  8
Layer0_
 62
   250
420
  2500134
370
    -3
100
AcDbLine
 10
1002.086870061237
 20
597.1903660161737
 30
0.0
 11
1008.080823140172
 21
602.318259296728
 31
0.0
  0
LINE
  5
135
330
1F
100
AcDbEntity
  8
Layer0_
 62
   250
420
  2500134
370
    -3
100
AcDbLine
 10
1008.080823140172
 20
602.3182592967278
 30
0.0
 11
1002.298774061818
 21
609.8053475470175
 31
0.0
  0
LINE
  5
136
330
1F
100
AcDbEntity
  8
Layer0_
 62
   250
420
  2500134
370
    -3
100
AcDbLine
 10
960.263263627617
 20
608.3573698786315
 30
0.0
 11
954.2666085801086
 21
603.2271650340206
 31
0.0
  0
LINE
  5
137
330
1F
100
AcDbEntity
  8
Layer0_
 62
   250
420
  2500134
370
    -3
100
AcDbLine
 10
954.2666085801086
 20
603.2271650340206
 30
0.0
 11
976.0986628868167
 21
574.9571667921563
 31
0.0
  0
LINE
  5
138
330
1F
100
AcDbEntity
  8
Layer0_
 62
   250
420
  2500134
370
    -3
100
AcDbLine
 10
976.0986628868163
 20
574.9571667921565
 30
0.0
 11
982.0926159657514
 21
580.0850600727113
 31
0.0
  0
LINE
  5
139
330
1F
100
AcDbEntity
  8
Layer0_
 62
   250
420
  2500134
370
    -3
100
AcDbLine
 10
982.092615965751
 20
580.0850600727108
 30
0.0
 11
981.4819782654249
 21
580.8757656321657
 31
0.0
  0
LINE
  5
13A
330
1F
100
AcDbEntity
  8
Layer0_
 62
   250
420
  2500134
370
    -3
100
AcDbLine
 10
981.4819782654248
 20
580.8757656321659
 30
0.0
 11
975.9877464404485
 21
576.1753894219955
 31
0.0
  0
LINE
  5
13B
330
1F
100
AcDbEntity
  8
Layer0_
 62
   250
420
  2500134
370
    -3
100
AcDbLine
 10
975.5986464216047
 20
576.6792528825453
 30
0.0
 11
981.4819782654254
 21
580.875765632166
 31
0.0
  0
LINE
  5
13C
330
1F
100
AcDbEntity
  8
Layer0_
 62
   250
420
  2500134
370
    -3
100
AcDbLine
 10
692.2786095963597
 20
372.5115961785592
 30
0.0
 11
976.0986628868167
 21
574.9571667921566
 31
0.0
  0
LINE
  5
13D
330
1F
100
AcDbEntity
  8
Layer0_
 62
   250
420
  2500134
370
    -3
100
AcDbLine
 10
670.4465552896519
 20
400.7815944204238
 30
0.0
 11
954.2666085801085
 21
603.2271650340206
 31
0.0
  0
LINE
  5
13E
330
1F
100
AcDbEntity
  8
Layer0_
 62
   250
420
  2500134
370
    -3
100
AcDbLine
 10
692.2786095963597
 20
372.5115961785592
 30
0.0
 11
670.4465552896521
 21
400.7815944204236
 31
0.0
  0
LINE
  5
13F
330
1F
100
AcDbEntity
  8
Layer0_
 62
   250
420
  2500134
370
    -3
100
AcDbLine
 10
732.8671261798578
 20
449.854054175151
 30
0.0
 11
930.9233933689751
 21
591.1253053071729
 31
0.0
  0
LINE
  5
140
330
1F
100
AcDbEntity
  8
Layer0_
 62
   250
420
  2500134
370
    -3
100
AcDbLine
 10
974.7932964291712
 20
577.7221747309958
 30
0.0
 11
1002.086870061237
 21
597.1903660161727
 31
0.0
  0
LINE
  5
141
330
1F
100
AcDbEntity
  8
Layer0_
 62
   250
420
  2500134
370
    -3
100
AcDbLine
 10
974.1826587288449
 20
578.5128802904509
 30
0.0
 11
1001.476232360911
 21
597.9810715756284
 31
0.0
  0
LINE
  5
142
330
1F
100
AcDbEntity
  8
Layer0_
 62
   250
420
  2500134
370
    -3
100
AcDbLine
 10
973.7935587100002
 20
579.0167437510001
 30
0.0
 11
1006.970464185887
 21
602.6814477857985
 31
0.0
  0
LINE
  5
143
330
1F
100
AcDbEntity
  8
Layer0_
 62
   250
420
  2500134
370
    -3
100
AcDbLine
 10
670.4465552896528
 20
400.7815944204238
 30
0.0
 11
676.4287741393415
 21
405.8994489378263
 31
0.0
  0
LINE
  5
144
330
1F
100
AcDbEntity
  8
Layer0_
 62
   250
420
  2500134
370
    -3
100
AcDbLine
 10
628.02809002041
 20
729.3259341680745
 30
0.0
 11
608.8591203164444
 21
734.8422353579618
 31
0.0
  0
LINE
  5
145
330
1F
100
AcDbEntity
  8
Layer0_
 62
   250
420
  2500134
370
    -3
100
AcDbLine
 10
607.1125483222453
 20
699.9228199861443
 30
0.0
 11
613.5597175527727
 21
705.4384447066659
 31
0.0
  0
LINE
  5
146
330
1F
100
AcDbEntity
  8
Layer0_
 62
   250
420
  2500134
370
    -3
100
AcDbLine
 10
577.8764025710072
 20
708.3361769941588
 30
0.0
 11
607.1125483222453
 21
699.9228199861443
 31
0.0
  0
LINE
  5
147
330
1F
100
AcDbEntity
  8
Layer0_
 62
   250
420
  2500134
370
    -3
100
AcDbLine
 10
583.3706343959831
 20
713.036553204329
 30
0.0
 11
577.8764025710072
 21
708.3361769941588
 31
0.0
  0
LINE
  5
148
330
1F
100
AcDbEntity
  8
Layer0_
 62
   250
420
  2500134
370
    -3
100
AcDbLine
 10
582.5044520508462
 20
713.2858166115401
 30
0.0
 11
583.3706343959831
 21
713.036553204329
 31
0.0
  0
LINE
  5
149
330
1F
100
AcDbEntity
  8
Layer0_
 62
   250
420
  2500134
370
    -3
100
AcDbLine
 10
576.5104989719116
 20
708.1579233309859
 30
0.0
 11
582.5044520508462
 21
713.2858166115401
 31
0.0
  0
LINE
  5
14A
330
1F
100
AcDbEntity
  8
Layer0_
 62
   250
420
  2500134
370
    -3
100
AcDbLine
 10
607.4790094134235
 20
699.2460395085492
 30
0.0
 11
576.5104989719116
 21
708.157923330986
 31
0.0
  0
LINE
  5
14B
330
1F
100
AcDbEntity
  8
Layer0_
 62
   250
420
  2500134
370
    -3
100
AcDbLine
 10
613.5567352022986
 20
704.4456012707785
 30
0.0
 11
607.4790094134237
 21
699.2460395085493
 31
0.0
  0
LINE
  5
14C
330
1F
100
AcDbEntity
  8
Layer0_
 62
   250
420
  2500134
370
    -3
100
AcDbLine
 10
608.4926592252666
 20
735.5190158355573
 30
0.0
 11
628.5278112743692
 21
729.7534512384586
 31
0.0
  0
LINE
  5
14D
330
1F
100
AcDbEntity
  8
Layer0_
 62
   250
420
  2500134
370
    -3
100
AcDbLine
 10
602.4987061463321
 20
730.391122555003
 30
0.0
 11
608.4926592252666
 21
735.5190158355572
 31
0.0
  0
LINE
  5
14E
330
1F
100
AcDbEntity
  8
Layer0_
 62
   250
420
  2500134
370
    -3
100
AcDbLine
 10
603.3648884914691
 20
730.1418591477917
 30
0.0
 11
602.4987061463323
 21
730.391122555003
 31
0.0
  0
LINE
  5
14F
330
1F
100
AcDbEntity
  8
Layer0_
 62
   250
420
  2500134
370
    -3
100
AcDbLine
 10
608.8591203164444
 20
734.8422353579617
 30
0.0
 11
603.3648884914688
 21
730.1418591477918
 31
0.0
  0
LINE
  5
150
330
1F
100
AcDbEntity
  8
Layer0_
 62
   250
420
  2500134
370
    -3
100
AcDbLine
 10
608.8591203164456
 20
734.8422353579622
 30
0.0
 11
608.7584574305179
 21
701.3309205792845
 31
0.0
  0
LINE
  5
151
330
1F
100
AcDbEntity
  8
Layer0_
 62
   250
420
  2500134
370
    -3
100
AcDbLine
 10
603.3648884914688
 20
730.1418591477915
 30
0.0
 11
603.2774304545972
 21
701.0265225812719
 31
0.0
  0
LINE
  5
152
330
1F
100
AcDbEntity
  8
Layer0_
 62
   250
420
  2500134
370
    -3
100
AcDbLine
 10
602.4987061463321
 20
730.3911225550028
 30
0.0
 11
602.4112481094598
 21
701.2757859884831
 31
0.0
  0
LINE
  5
153
330
1F
100
AcDbEntity
  8
Layer0_
 62
   250
420
  2500134
370
    -3
100
AcDbLine
 10
639.4242599676345
 20
714.3196584819896
 30
0.0
 11
638.6415647179284
 21
453.7554331767932
 31
0.0
  0
LINE
  5
154
330
1F
100
AcDbEntity
  8
Layer0_
 62
   250
420
  2500134
370
    -3
100
AcDbLine
 10
607.479009413423
 20
699.246039508549
 30
0.0
 11
606.6662270524401
 21
428.665623553762
 31
0.0
  0
LINE
  5
155
330
1F
100
AcDbEntity
  8
Layer0_
 62
   250
420
  2500134
370
    -3
100
AcDbLine
 10
638.6415647179286
 20
453.7554331767935
 30
0.0
 11
634.4643098030227
 21
450.1817453071653
 31
0.0
  0
LINE
  5
156
330
1F
100
AcDbEntity
  8
Layer0_
 62
   250
420
  2500134
370
    -3
100
AcDbLine
 10
612.7371302534541
 20
431.5939024344559
 30
0.0
 11
608.6477573012617
 21
428.0953985577867
 31
0.0
  0
ELLIPSE
  5
157
330
1F
100
AcDbEntity
  8
Layer0_
 62
   250
420
  2500134
370
    -3
100
AcDbEllipse
 10
616.4503572193032
 20
450.1738844115686
 30
0.0
 11
-0.6827741176822947
 21
-2.427778915824347
 31
0.0
210
0.0
220
0.0
230
1.0
 40
0.4309459945119772
 41
1.048100421706275
 42
2.094273009391782
  0
ELLIPSE
  5
158
330
1F
100
AcDbEntity
  8
Layer0_
 62
   250
420
  2500134
370
    -3
100
AcDbEllipse
 10
616.5156130412986
 20
471.8979624753772
 30
0.0
 11
-0.682774117682296
 21
-2.427778915824344
 31
0.0
210
0.0
220
0.0
230
1.0
 40
0.4309459945119774
 41
1.048100421706371
 42
2.094273009391443
  0
ELLIPSE
  5
159
330
1F
100
AcDbEntity
  8
Layer0_
 62
   250
420
  2500134
370
    -3
100
AcDbEllipse
 10
629.0086443902654
 20
482.5858892349748
 30
0.0
 11
-0.6827741176822947
 21
-2.427778915824343
 31
0.0
210
0.0
220
0.0
230
1.0
 40
0.4309459945119781
 41
1.048100353258907
 42
2.094404760255744
  0
ELLIPSE
  5
15A
330
1F
100
AcDbEntity
  8
Layer0_
 62
   250
420
  2500134
370
    -3
100
AcDbEllipse
 10
628.94338856827
 20
460.8618111711669
 30
0.0
 11
-0.6827741176822947
 21
-2.427778915824347
 31
0.0
210
0.0
220
0.0
230
1.0
 40
0.4309459945119772
 41
1.048100353259408
 42
2.094404760255427
  0
LINE
  5
15B
330
1F
100
AcDbEntity
  8
Layer0_
 62
   250
420
  2500134
370
    -3
100
AcDbLine
 10
576.5104989719111
 20
708.1579233309855
 30
0.0
 11
575.6908940230612
 21
435.3062244946585
 31
0.0
  0
LINE
  5
15C
330
1F
100
AcDbEntity
  8
Layer0_
 62
   250
420
  2500134
370
    -3
100
AcDbLine
 10
591.8798137565318
 20
430.6474995570186
 30
0.0
 11
575.690894023062
 21
435.3062244946588
 31
0.0
  0
LINE
  5
15D
330
1F
100
AcDbEntity
  8
Layer0_
 62
   250
420
  2500134
370
    -3
100
AcDbLine
 10
583.3706343959831
 20
713.0365532043294
 30
0.0
 11
583.3517821687053
 21
706.7605268739369
 31
0.0
  0
LINE
  5
15E
330
1F
100
AcDbEntity
  8
Layer0_
 62
   250
420
  2500134
370
    -3
100
AcDbLine
 10
646.5092418165323
 20
384.9660768366133
 30
0.0
 11
588.924538816342
 21
401.5373669945598
 31
0.0
  0
LINE
  5
15F
330
1F
100
AcDbEntity
  8
Layer0_
 62
   250
420
  2500134
370
    -3
100
AcDbLine
 10
646.5092418165322
 20
384.9660768366133
 30
0.0
 11
646.5433908356166
 21
396.3345251994849
 31
0.0
  0
LINE
  5
160
330
1F
100
AcDbEntity
  8
Layer0_
 62
   250
420
  2500134
370
    -3
100
AcDbLine
 10
646.5433908356167
 20
396.3345251994843
 30
0.0
 11
588.958687835427
 21
412.9058153574308
 31
0.0
  0
LINE
  5
161
330
1F
100
AcDbEntity
  8
Layer0_
 62
   250
420
  2500134
370
    -3
100
AcDbLine
 10
588.9245388163421
 20
401.5373669945596
 30
0.0
 11
588.9586878354266
 21
412.9058153574308
 31
0.0
  0
ELLIPSE
  5
162
330
1F
100
AcDbEntity
  8
Layer0_
 62
   250
420
  2500134
370
    -3
100
AcDbEllipse
 10
601.9383418961493
 20
404.3121949334063
 30
0.0
 11
-1.625190746515778
 21
1.899672350022354
 31
0.0
210
0.0
220
0.0
230
-1.0
 40
0.7533311508707903
 41
0.0
 42
6.283185307179586
  0
ELLIPSE
  5
163
330
1F
100
AcDbEntity
  8
Layer0_
 62
   250
420
  2500134
370
    -3
100
AcDbEllipse
 10
633.536093435686
 20
395.2252632078797
 30
0.0
 11
-1.625190746515778
 21
1.899672350022355
 31
0.0
210
0.0
220
0.0
230
-1.0
 40
0.7533311508707903
 41
0.0
 42
6.283185307179586
  0
LINE
  5
164
330
1F
100
AcDbEntity
  8
Layer0_
 62
   250
420
  2500134
370
    -3
100
AcDbLine
 10
647.308795822866
 20
385.6501041492274
 30
0.0
 11
646.5092418165322
 21
384.9660768366133
 31
0.0
  0
LINE
  5
165
330
1F
100
AcDbEntity
  8
Layer0_
 62
   250
420
  2500134
370
    -3
100
AcDbLine
 10
588.9586878354266
 20
412.9058153574309
 30
0.0
 11
586.413775795197
 21
421.559549718238
 31
0.0
  0
ELLIPSE
  5
166
330
1F
100
AcDbEntity
  8
Layer0_
 62
   250
420
  2500134
370
    -3
100
AcDbEllipse
 10
587.8951061213589
 20
423.8850411324034
 30
0.0
 11
-0.8849575595042442
 21
-3.075199199706715
 31
0.0
210
0.0
220
0.0
230
-1.0
 40
0.433123425117158
 41
0.5981248233874833
 42
2.559728488986894
  0
LINE
  5
167
330
1F
100
AcDbEntity
  8
Layer0_
 62
   250
420
  2500134
370
    -3
100
AcDbLine
 10
587.9024236246452
 20
426.6648369015571
 30
0.0
 11
592.2010616321483
 21
430.3423693519993
 31
0.0
  0
LINE
  5
168
330
1F
100
AcDbEntity
  8
Layer0_
 62
   250
420
  2500134
370
    -3
100
AcDbLine
 10
646.5433908356166
 20
396.3345251994849
 30
0.0
 11
645.8605373463727
 21
398.6565043523419
 31
0.0
  0
LINE
  5
169
330
1F
100
AcDbEntity
  8
Layer0_
 62
   250
420
  2500134
370
    -3
100
AcDbLine
 10
609.6405726149966
 20
414.8755178279569
 30
0.0
 11
586.4137757792577
 21
421.5595496932152
 31
0.0
  0
LINE
  5
16A
330
1F
100
AcDbEntity
  8
Layer0_
 62
   250
420
  2500134
370
    -3
100
AcDbLine
 10
647.0432352395828
 20
398.316159357963
 30
0.0
 11
647.3437728715072
 21
397.2942093687351
 31
0.0
  0
LINE
  5
16B
330
1F
100
AcDbEntity
  8
Layer0_
 62
   250
420
  2500134
370
    -3
100
AcDbLine
 10
647.3437728715072
 20
397.2942093687352
 30
0.0
 11
647.308795822866
 21
385.6501041492275
 31
0.0
  0
LINE
  5
16C
330
1F
100
AcDbEntity
  8
Layer0_
 62
   250
420
  2500134
370
    -3
100
AcDbLine
 10
717.8373732474817
 20
389.2818266510486
 30
0.0
 11
717.8328515670091
 21
387.89263026345
 31
0.0
  0
ELLIPSE
  5
16D
330
1F
100
AcDbEntity
  8
Layer0_
 62
   250
420
  2500134
370
    -3
100
AcDbEllipse
 10
717.8283251867348
 20
386.5019899552499
 30
0.0
 11
0.442478779752194
 21
1.53759959985361
 31
0.0
210
0.0
220
0.0
230
1.0
 40
0.4331234251171584
 41
0.5807790243915627
 42
0.7255529906446431
  0
ELLIPSE
  5
16E
330
1F
100
AcDbEntity
  8
Layer0_
 62
   250
420
  2500134
370
    -3
100
AcDbEllipse
 10
717.8224578942055
 20
386.4955308370336
 30
0.0
 11
0.4424787797521164
 21
1.537599599853337
 31
0.0
210
0.0
220
0.0
230
1.0
 40
0.433123425117158
 41
0.5821323163605232
 42
0.7181470741291816
  0
LINE
  5
16F
330
1F
100
AcDbEntity
  8
Layer0_
 62
   250
420
  2500134
370
    -3
100
AcDbLine
 10
722.1235050272351
 20
391.5618918124685
 30
0.0
 11
717.8259022432273
 21
387.8852450071984
 31
0.0
  0
ELLIPSE
  5
170
330
1F
100
AcDbEntity
  8
Layer0_
 62
   250
420
  2500134
370
    -3
100
AcDbEllipse
 10
722.1200606782501
 20
390.1721776423353
 30
0.0
 11
0.4424787797521942
 21
1.53759959985361
 31
0.0
210
0.0
220
0.0
230
1.0
 40
0.4331234251171584
 41
4.90215102687907
 42
6.865317623586292
  0
LINE
  5
171
330
1F
100
AcDbEntity
  8
Layer0_
 62
   250
420
  2500134
370
    -3
100
AcDbLine
 10
722.7679679800343
 20
389.8256911715402
 30
0.0
 11
722.8575391420434
 21
390.274000040798
 31
0.0
  0
LINE
  5
172
330
1F
100
AcDbEntity
  8
Layer0_
 62
   250
420
  2500134
370
    -3
100
AcDbLine
 10
723.5950174667289
 20
390.3758224200541
 30
0.0
 11
723.4456519345232
 21
389.6282392543646
 31
0.0
  0
ELLIPSE
  5
173
330
1F
100
AcDbEntity
  8
Layer0_
 62
   250
420
  2500134
370
    -3
100
AcDbEllipse
 10
722.1200606782501
 20
390.1721776423353
 30
0.0
 11
-0.884957559504294
 21
-3.075199199706892
 31
0.0
210
0.0
220
0.0
230
-1.0
 40
0.4331234251171582
 41
2.560375864600442
 42
4.522626933891411
  0
LINE
  5
174
330
1F
100
AcDbEntity
  8
Layer0_
 62
   250
420
  2500134
370
    -3
100
AcDbLine
 10
717.8373732474817
 20
389.2818266510487
 30
0.0
 11
722.1284134049948
 21
392.9528590566294
 31
0.0
  0
LINE
  5
175
330
1F
100
AcDbEntity
  8
Layer0_
 62
   250
420
  2500134
370
    -3
100
AcDbLine
 10
670.1971622417703
 20
401.4545161628893
 30
0.0
 11
670.9723653929783
 21
401.2314340650277
 31
0.0
  0
LINE
  5
176
330
1F
100
AcDbEntity
  8
Layer0_
 62
   250
420
  2500134
370
    -3
100
AcDbLine
 10
714.8431517990042
 20
388.6066310684897
 30
0.0
 11
717.7174538208009
 21
387.7794861789066
 31
0.0
  0
LINE
  5
177
330
1F
100
AcDbEntity
  8
Layer0_
 62
   250
420
  2500134
370
    -3
100
AcDbLine
 10
670.3433594568567
 20
401.5587970093011
 30
0.0
 11
671.1003759659812
 21
401.3409485257026
 31
0.0
  0
LINE
  5
178
330
1F
100
AcDbEntity
  8
Layer0_
 62
   250
420
  2500134
370
    -3
100
AcDbLine
 10
714.98934901409
 20
388.7109119149009
 30
0.0
 11
717.8328515670094
 21
387.8926302634502
 31
0.0
  0
LINE
  5
179
330
1F
100
AcDbEntity
  8
Layer0_
 62
   250
420
  2500134
370
    -3
100
AcDbLine
 10
671.7323834424877
 20
402.5495717983187
 30
0.0
 11
672.3166078789709
 21
402.3814481100834
 31
0.0
  0
LINE
  5
17A
330
1F
100
AcDbEntity
  8
Layer0_
 62
   250
420
  2500134
370
    -3
100
AcDbLine
 10
716.378372999721
 20
389.7016867039185
 30
0.0
 11
717.8373732474817
 21
389.2818266510486
 31
0.0
  0
LINE
  5
17B
330
1F
100
AcDbEntity
  8
Layer0_
 62
   250
420
  2500134
370
    -3
100
AcDbLine
 10
600.4216884991563
 20
423.0621375735943
 30
0.0
 11
587.9024236246452
 21
426.664836901557
 31
0.0
  0
LINE
  5
17C
330
1F
100
AcDbEntity
  8
Layer0_
 62
   250
420
  2500134
370
    -3
100
AcDbLine
 10
722.8575390724897
 20
390.2740000311947
 30
0.0
 11
721.1817811152443
 21
390.7562369777655
 31
0.0
  0
LINE
  5
17D
330
1F
100
AcDbEntity
  8
Layer0_
 62
   250
420
  2500134
370
    -3
100
AcDbLine
 10
722.12841340587
 20
392.9528593479719
 30
0.0
 11
721.2790474425503
 21
393.1972834588057
 31
0.0
  0
LINE
  5
17E
330
1F
100
AcDbEntity
  8
Layer0_
 62
   250
420
  2500134
370
    -3
100
AcDbLine
 10
723.0049931807088
 20
393.247384052769
 30
0.0
 11
721.8252661694655
 21
393.5868769665453
 31
0.0
  0
LINE
  5
17F
330
1F
100
AcDbEntity
  8
0
 62
   250
420
  2500134
370
    -3
100
AcDbLine
 10
506.4403865931749
 20
411.1632903041731
 30
0.0
 11
522.0239608252795
 21
406.6646999152522
 31
0.0
  0
LINE
  5
180
330
1F
100
AcDbEntity
  8
0
 62
   250
420
  2500134
370
    -3
100
AcDbLine
 10
562.9513576299386
 20
394.8499781340517
 30
0.0
 11
868.4301730050122
 21
306.6658399897877
 31
0.0
  0
LINE
  5
181
330
1F
100
AcDbEntity
  8
0
 62
   250
420
  2500134
370
    -3
100
AcDbLine
 10
909.3615191437134
 20
294.8499781340512
 30
0.0
 11
941.7653763134978
 21
285.4957903041724
 31
0.0
  0
LINE
  5
182
330
1F
100
AcDbEntity
  8
0
 62
   250
420
  2500134
370
    -3
100
AcDbLine
 10
953.7153763134957
 20
295.8447938793979
 30
0.0
 11
941.7653763134954
 21
285.4957903041736
 31
0.0
  0
ELLIPSE
  5
183
330
1F
100
AcDbEntity
  8
0
 62
   250
420
  2500134
370
    -3
100
AcDbEllipse
 10
948.0353763134962
 20
323.5316260383848
 30
0.0
 11
0.06933752452826908
 21
0.2401922307080309
 31
0.0
210
0.0
220
0.0
230
1.0
 40
0.4330127018922214
 41
5.300391583932257
 42
6.871187910732185
  0
LINE
  5
184
330
1F
100
AcDbEntity
  8
0
 62
   250
420
  2500134
370
    -3
100
AcDbLine
 10
947.9728762772259
 20
323.6940058120649
 30
0.0
 11
948.1603763134975
 21
323.6398792138577
 31
0.0
  0
ELLIPSE
  5
185
330
1F
100
AcDbEntity
  8
0
 62
   250
420
  2500134
370
    -3
100
AcDbEllipse
 10
947.4453763134967
 20
323.0206710501525
 30
0.0
 11
0.0693375245282698
 21
0.2401922307080307
 31
0.0
210
0.0
220
0.0
230
1.0
 40
0.4330127018922197
 41
0.5880026035475688
 42
2.158798930342926
  0
ELLIPSE
  5
186
330
1F
100
AcDbEntity
  8
0
 62
   250
420
  2500134
370
    -3
100
AcDbEllipse
 10
948.0260707428814
 20
323.566868448027
 30
0.0
 11
0.1664127851501287
 21
0.5764621314483486
 31
0.0
210
0.0
220
0.0
230
-1.0
 40
0.4330140580752596
 41
5.695177210554611
 42
7.265973537349555
  0
ELLIPSE
  5
187
330
1F
100
AcDbEntity
  8
0
 62
   250
420
  2500134
370
    -3
100
AcDbEllipse
 10
511.1153890361477
 20
439.3740699481307
 30
0.0
 11
-0.1664127851501579
 21
-0.5764621314483542
 31
0.0
210
0.0
220
0.0
230
1.0
 40
0.4330140580752218
 41
5.300397077009755
 42
6.28427390980605
  0
ELLIPSE
  5
188
330
1F
100
AcDbEntity
  8
0
 62
   250
420
  2500134
370
    -3
100
AcDbEllipse
 10
930.545964539897
 20
319.4207223154194
 30
0.0
 11
0.1649802245819742
 21
0.5768721916480797
 31
0.0
210
0.0
220
0.0
230
1.0
 40
0.429982453883455
 41
2.157729037396051
 42
3.141605870302195
  0
LINE
  5
189
330
1F
100
AcDbEntity
  8
0
 62
   250
420
  2500134
370
    -3
100
AcDbLine
 10
930.2480639573045
 20
319.1603114655634
 30
0.0
 11
906.303123668856
 21
326.0083476227156
 31
0.0
  0
LINE
  5
18A
330
1F
100
AcDbEntity
  8
0
 62
   250
420
  2500134
370
    -3
100
AcDbLine
 10
894.8058774398248
 20
329.2964559635856
 30
0.0
 11
706.9950312613748
 21
383.0086577833499
 31
0.0
  0
LINE
  5
18B
330
1F
100
AcDbEntity
  8
0
 62
   250
420
  2500134
370
    -3
100
AcDbLine
 10
677.702489626824
 20
391.3860595154836
 30
0.0
 11
657.5620722015083
 21
397.1460365748223
 31
0.0
  0
LINE
  5
18C
330
1F
100
AcDbEntity
  8
0
 62
   250
420
  2500134
370
    -3
100
AcDbLine
 10
587.7192382682967
 20
417.1204548164637
 30
0.0
 11
557.3506001232618
 21
425.8056104090627
 31
0.0
  0
LINE
  5
18D
330
1F
100
AcDbEntity
  8
0
 62
   250
420
  2500134
370
    -3
100
AcDbLine
 10
547.5868870411578
 20
428.5979439629936
 30
0.0
 11
510.8153865931734
 21
439.1142602113164
 31
0.0
  0
ELLIPSE
  5
18E
330
1F
100
AcDbEntity
  8
0
 62
   250
420
  2500134
370
    -3
100
AcDbEllipse
 10
511.1153890361477
 20
447.8611189052183
 30
0.0
 11
-0.1664127851501382
 21
-0.5764621314483483
 31
0.0
210
0.0
220
0.0
230
1.0
 40
0.4330140580752487
 41
3.729600750214807
 42
5.300397077009983
  0
ELLIPSE
  5
18F
330
1F
100
AcDbEntity
  8
0
 62
   250
420
  2500134
370
    -3
100
AcDbEllipse
 10
947.4546818841083
 20
323.0720311808902
 30
0.0
 11
-0.1664127851501338
 21
-0.5764621314483613
 31
0.0
210
0.0
220
0.0
230
-1.0
 40
0.4330140580752442
 41
0.982788230169876
 42
2.553584556964428
  0
LINE
  5
190
330
1F
100
AcDbEntity
  8
0
 62
   250
420
  2500134
370
    -3
100
AcDbLine
 10
947.4546818841097
 20
323.5916464231606
 30
0.0
 11
719.0332182249983
 21
388.9181172083816
 31
0.0
  0
LINE
  5
191
330
1F
100
AcDbEntity
  8
0
 62
   250
420
  2500134
370
    -3
100
AcDbLine
 10
587.7099334523812
 20
426.4753878286262
 30
0.0
 11
559.0664111285942
 21
434.6671759132309
 31
0.0
  0
LINE
  5
192
330
1F
100
AcDbEntity
  8
0
 62
   250
420
  2500134
370
    -3
100
AcDbLine
 10
555.8079788704695
 20
435.5990580415833
 30
0.0
 11
511.1153890361496
 21
448.3807341474885
 31
0.0
  0
LINE
  5
193
330
1F
100
AcDbEntity
  8
0
 62
   250
420
  2500134
370
    -3
100
AcDbLine
 10
510.8153865931734
 20
447.601309168404
 30
0.0
 11
555.0056310476774
 21
434.9632992935654
 31
0.0
  0
LINE
  5
194
330
1F
100
AcDbEntity
  8
0
 62
   250
420
  2500134
370
    -3
100
AcDbLine
 10
559.3437398724084
 20
433.7226394411059
 30
0.0
 11
587.1919021972332
 21
425.7583171160827
 31
0.0
  0
LINE
  5
195
330
1F
100
AcDbEntity
  8
0
 62
   250
420
  2500134
370
    -3
100
AcDbLine
 10
718.2752493908187
 20
388.2696664713682
 30
0.0
 11
902.2246214463453
 21
335.6618112941572
 31
0.0
  0
LINE
  5
196
330
1F
100
AcDbEntity
  8
0
 62
   250
420
  2500134
370
    -3
100
AcDbLine
 10
906.3189018454617
 20
334.4908841641283
 30
0.0
 11
947.1546794411345
 21
322.8122214440757
 31
0.0
  0
SPLINE
  5
197
330
1F
100
AcDbEntity
  8
0
 62
   250
420
  2500134
370
    -3
100
AcDbSpline
210
0.0
220
0.0
230
1.0
 70
     8
 71
     3
 72
    10
 73
     6
 74
     0
 42
0.000000001
 43
0.00000001
 40
0.0
 40
0.0
 40
0.0
 40
0.0
 40
0.0002343911865593
 40
0.0002343911865593
 40
0.0002975486558462
 40
0.0002975486558462
 40
0.0002975486558462
 40
0.0002975486558462
 10
947.4269367754403
 20
314.0404111094545
 30
0.0
 10
947.3880390033445
 20
314.0129823663909
 30
0.0
 10
947.3502187816521
 20
313.999586449994
 30
0.0
 10
947.3062781415333
 20
314.0013522478966
 30
0.0
 10
947.297232185375
 20
314.0027987282078
 30
0.0
 10
947.2885009059235
 20
314.0052989778892
 30
0.0
  0
SPLINE
  5
198
330
1F
100
AcDbEntity
  8
0
 62
   250
420
  2500134
370
    -3
100
AcDbSpline
210
0.0
220
0.0
230
1.0
 70
     8
 71
     3
 72
    12
 73
     8
 74
     0
 42
0.000000001
 43
0.00000001
 40
0.0002975486558462
 40
0.0002975486558462
 40
0.0002975486558462
 40
0.0002975486558462
 40
0.0004687813826721
 40
0.0004687813826721
 40
0.0006791155446335
 40
0.0006791155446335
 40
0.000889449958323
 40
0.000889449958323
 40
0.000889449958323
 40
0.000889449958323
 10
947.2885009059235
 20
314.0052989778892
 30
0.0
 10
947.2648287626671
 20
314.0120781090966
 30
0.0
 10
947.2434699092561
 20
314.026603864976
 30
0.0
 10
947.2025333546859
 20
314.0754450994923
 30
0.0
 10
947.1848433968942
 20
314.1130839976218
 30
0.0
 10
947.1608240091314
 20
314.2063704450616
 30
0.0
 10
947.1546794411332
 20
314.2613001058118
 30
0.0
 10
947.1546794411333
 20
314.3220184022946
 30
0.0
  0
SPLINE
  5
199
330
1F
100
AcDbEntity
  8
0
 62
   250
420
  2500134
370
    -3
100
AcDbSpline
210
0.0
220
0.0
230
1.0
 70
     8
 71
     3
 72
    17
 73
    13
 74
     0
 42
0.000000001
 43
0.00000001
 40
0.0006024263265185
 40
0.0006024263265185
 40
0.0006024263265185
 40
0.0006024263265185
 40
0.0067960649272575
 40
0.0067960649272575
 40
0.0067960649272575
 40
0.013386188493083
 40
0.013386188493083
 40
0.013386188493083
 40
0.0175050157217239
 40
0.0175050157217239
 40
0.0175050157217239
 40
0.0200792827396245
 40
0.0200792827396245
 40
0.0200792827396245
 40
0.0200792827396245
 10
947.1546794411347
 20
314.3220184022942
 30
0.0
 10
945.3625787965001
 20
314.8352130678098
 30
0.0
 10
943.5704781019374
 20
315.3483003061901
 30
0.0
 10
941.7783773767345
 20
315.8612808511101
 30
0.0
 10
939.8715555579599
 20
316.4070997785306
 30
0.0
 10
937.9647337044859
 20
316.9527979182394
 30
0.0
 10
936.0579118393788
 20
317.4983758014637
 30
0.0
 10
934.8661481736871
 20
317.839361978479
 30
0.0
 10
933.6743845034483
 20
318.1803011731587
 30
0.0
 10
932.4826208342992
 20
318.5211934445223
 30
0.0
 10
931.737768541081
 20
318.7342511141246
 30
0.0
 10
930.9929162482888
 20
318.9472904532346
 30
0.0
 10
930.2480639573032
 20
319.1603114655637
 30
0.0
  0
SPLINE
  5
19A
330
1F
100
AcDbEntity
  8
0
 62
   250
420
  2500134
370
    -3
100
AcDbSpline
210
0.0
220
0.0
230
1.0
 70
     8
 71
     3
 72
    14
 73
    10
 74
     0
 42
0.000000001
 43
0.00000001
 40
0.0
 40
0.0
 40
0.0
 40
0.0
 40
0.0002343847863647
 40
0.0002343847863647
 40
0.0004687705463835
 40
0.0004687705463835
 40
0.0006791105837217
 40
0.0006791105837217
 40
0.0008894496750101
 40
0.0008894496750101
 40
0.0008894496750101
 40
0.0008894496750101
 10
948.3260731858562
 20
315.3364751430595
 30
0.0
 10
948.3260731858564
 20
315.2688140833088
 30
0.0
 10
948.3184430938145
 20
315.1951920757913
 30
0.0
 10
948.2887816687387
 20
315.0443136567758
 30
0.0
 10
948.2670338646504
 20
314.9684997520931
 30
0.0
 10
948.2149675940545
 20
314.8320357944439
 30
0.0
 10
948.1861580753965
 20
314.7716784553977
 30
0.0
 10
948.1227915176266
 20
314.6648242598183
 30
0.0
 10
948.0887221324563
 20
314.6191496213019
 30
0.0
 10
948.0538158515501
 20
314.5833043144677
 30
0.0
  0
ELLIPSE
  5
19B
330
1F
100
AcDbEntity
  8
0
 62
   250
420
  2500134
370
    -3
100
AcDbEllipse
 10
513.7153841501969
 20
450.1127807237003
 30
0.0
 11
0.1664127851501804
 21
0.5764621314483472
 31
0.0
210
0.0
220
0.0
230
1.0
 40
0.4330140580752009
 41
6.282144781256546
 42
6.871193403804767
  0
LINE
  5
19C
330
1F
100
AcDbEntity
  8
0
 62
   250
420
  2500134
370
    -3
100
AcDbLine
 10
513.715384150199
 20
450.6323959659703
 30
0.0
 11
589.9528015243001
 21
428.4189579158154
 31
0.0
  0
LINE
  5
19D
330
1F
100
AcDbEntity
  8
0
 62
   250
420
  2500134
370
    -3
100
AcDbLine
 10
720.6815465976757
 20
390.3282803970299
 30
0.0
 11
948.0260707428828
 21
324.0864836902974
 31
0.0
  0
LINE
  5
19E
330
1F
100
AcDbEntity
  8
0
 62
   250
420
  2500134
370
    -3
100
AcDbLine
 10
947.1546794411329
 20
322.812221444076
 30
0.0
 11
947.1546794411329
 21
314.3220184022948
 31
0.0
  0
LINE
  5
19F
330
1F
100
AcDbEntity
  8
0
 62
   250
420
  2500134
370
    -3
100
AcDbLine
 10
510.8153865931723
 20
447.6013091684043
 30
0.0
 11
510.8153865931723
 21
439.1142602113168
 31
0.0
  0
ELLIPSE
  5
1A0
330
1F
100
AcDbEntity
  8
0
 62
   250
420
  2500134
370
    -3
100
AcDbEllipse
 10
948.0653763134956
 20
314.3777375203849
 30
0.0
 11
-0.06933752452815417
 21
-0.2401922307076306
 31
0.0
210
0.0
220
0.0
230
-1.0
 40
0.4330127018922219
 41
0.9827937232473283
 42
2.460974005322751
  0
ELLIPSE
  5
1A1
330
1F
100
AcDbEntity
  8
0
 62
   250
420
  2500134
370
    -3
100
AcDbEllipse
 10
947.4153763134952
 20
313.8148210079244
 30
0.0
 11
0.06933752452815417
 21
0.2401922307076306
 31
0.0
210
0.0
220
0.0
230
1.0
 40
0.4330127018922219
 41
5.300391583932258
 42
6.778571866008495
  0
LINE
  5
1A2
330
1F
100
AcDbEntity
  8
0
 62
   250
420
  2500134
370
    -3
100
AcDbLine
 10
947.5403763134954
 20
291.4064136850023
 30
0.0
 11
947.5403763134954
 21
313.9230741833978
 31
0.0
  0
ELLIPSE
  5
1A3
330
1F
100
AcDbEntity
  8
0
 62
   250
420
  2500134
370
    -3
100
AcDbEllipse
 10
947.4153763134952
 20
291.298160509529
 30
0.0
 11
0.06933752452815414
 21
0.2401922307076306
 31
0.0
210
0.0
220
0.0
230
1.0
 40
0.4330127018922217
 41
3.729595257137361
 42
5.300391583932258
  0
LINE
  5
1A4
330
1F
100
AcDbEntity
  8
0
 62
   250
420
  2500134
370
    -3
100
AcDbLine
 10
941.7653763134953
 20
286.1886106272008
 30
0.0
 11
947.4153763134952
 21
291.0816541585829
 31
0.0
  0
LINE
  5
1A5
330
1F
100
AcDbEntity
  8
0
 62
   250
420
  2500134
370
    -3
100
AcDbLine
 10
941.7653763134949
 20
285.4957903041736
 30
0.0
 11
941.7653763134949
 21
286.1886106272009
 31
0.0
  0
LINE
  5
1A6
330
1F
100
AcDbEntity
  8
0
 62
   250
420
  2500134
370
    -3
100
AcDbLine
 10
953.7153763134951
 20
295.8447938793979
 30
0.0
 11
953.7153763134951
 21
296.5376142024253
 31
0.0
  0
LINE
  5
1A7
330
1F
100
AcDbEntity
  8
0
 62
   250
420
  2500134
370
    -3
100
AcDbLine
 10
953.7153763134955
 20
296.5376142024255
 30
0.0
 11
948.0653763134956
 21
291.6445706710434
 31
0.0
  0
ELLIPSE
  5
1A8
330
1F
100
AcDbEntity
  8
0
 62
   250
420
  2500134
370
    -3
100
AcDbEllipse
 10
948.0653763134954
 20
291.8610770219894
 30
0.0
 11
-0.06933752452815414
 21
-0.2401922307076306
 31
0.0
210
0.0
220
0.0
230
-1.0
 40
0.4330127018922217
 41
5.695182703632018
 42
7.265979030427102
  0
LINE
  5
1A9
330
1F
100
AcDbEntity
  8
0
 62
   250
420
  2500134
370
    -3
100
AcDbLine
 10
947.9403763134953
 20
291.7528238465164
 30
0.0
 11
947.9403763134953
 21
314.2694843449118
 31
0.0
  0
LINE
  5
1AA
330
1F
100
AcDbEntity
  8
0
 62
   250
420
  2500134
370
    -3
100
AcDbLine
 10
948.3260731858568
 20
315.33647514306
 30
0.0
 11
948.3260731858568
 21
323.8266781848412
 31
0.0
  0
LINE
  5
1AB
330
1F
100
AcDbEntity
  8
0
 62
   250
420
  2500134
370
    -3
100
AcDbLine
 10
948.0260707428815
 20
324.0864836902979
 30
0.0
 11
947.4546818841084
 21
323.591646423161
 31
0.0
  0
ELLIPSE
  5
1AC
330
1F
100
AcDbEntity
  8
0
 62
   250
420
  2500134
370
    -3
100
AcDbEllipse
 10
948.0403763134956
 20
291.7961251167058
 30
0.0
 11
0.1664100588675825
 21
0.5764613536983566
 31
0.0
210
0.0
220
0.0
230
1.0
 40
0.4330127018922217
 41
2.158798930342465
 42
3.729595257137218
  0
LINE
  5
1AD
330
1F
100
AcDbEntity
  8
0
 62
   250
420
  2500134
370
    -3
100
AcDbLine
 10
947.4403763134953
 20
290.7568946321641
 30
0.0
 11
948.0403763134957
 21
291.2765098744351
 31
0.0
  0
ELLIPSE
  5
1AE
330
1F
100
AcDbEntity
  8
0
 62
   250
420
  2500134
370
    -3
100
AcDbEllipse
 10
947.4403763134951
 20
291.2765098744346
 30
0.0
 11
-0.1664100588675825
 21
-0.5764613536983567
 31
0.0
210
0.0
220
0.0
230
-1.0
 40
0.4330127018922217
 41
4.124386376837121
 42
5.695182703632018
  0
LINE
  5
1AF
330
1F
100
AcDbEntity
  8
0
 62
   250
420
  2500134
370
    -3
100
AcDbLine
 10
948.1603763134947
 20
323.6398792138585
 30
0.0
 11
948.1603763134947
 21
315.2393818527163
 31
0.0
  0
ELLIPSE
  5
1B0
330
1F
100
AcDbEntity
  8
0
 62
   250
420
  2500134
370
    -3
100
AcDbEllipse
 10
948.0353763135025
 20
315.1311286772477
 30
0.0
 11
0.06933752452823842
 21
0.2401922307079243
 31
0.0
210
0.0
220
0.0
230
1.0
 40
0.4330127018922194
 41
3.741360234426351
 42
5.300391583932257
  0
ELLIPSE
  5
1B1
330
1F
100
AcDbEntity
  8
0
 62
   250
420
  2500134
370
    -3
100
AcDbEllipse
 10
948.0403763134957
 20
314.3993881554795
 30
0.0
 11
0.16641005886757
 21
0.5764613536983135
 31
0.0
210
0.0
220
0.0
230
1.0
 40
0.4330127018922216
 41
0.5997675808183635
 42
2.158798930342464
  0
ELLIPSE
  5
1B2
330
1F
100
AcDbEntity
  8
0
 62
   250
420
  2500134
370
    -3
100
AcDbEllipse
 10
947.4403763134952
 20
313.8797729132083
 30
0.0
 11
-0.16641005886757
 21
-0.5764613536983135
 31
0.0
210
0.0
220
0.0
230
-1.0
 40
0.4330127018922216
 41
2.565355027350399
 42
4.124386376835908
  0
ELLIPSE
  5
1B3
330
1F
100
AcDbEntity
  8
0
 62
   250
420
  2500134
370
    -3
100
AcDbEllipse
 10
947.4453763135032
 20
314.6201736890157
 30
0.0
 11
0.06933752452823842
 21
0.2401922307079243
 31
0.0
210
0.0
220
0.0
230
1.0
 40
0.4330127018922194
 41
2.158798930342464
 42
3.717830279846432
  0
LINE
  5
1B4
330
1F
100
AcDbEntity
  8
0
 62
   250
420
  2500134
370
    -3
100
AcDbLine
 10
947.320376313495
 20
314.511920513538
 30
0.0
 11
947.320376313495
 21
322.9124178746799
 31
0.0
  0
LINE
  5
1B5
330
1F
100
AcDbEntity
  8
0
 62
   250
420
  2500134
370
    -3
100
AcDbLine
 10
947.4453763134953
 20
323.2371774010993
 30
0.0
 11
948.0353763134948
 21
323.7481323893317
 31
0.0
  0
LINE
  5
1B6
330
1F
100
AcDbEntity
  8
0
 62
   250
420
  2500134
370
    -3
100
AcDbLine
 10
947.443905725267
 20
314.4024087549561
 30
0.0
 11
947.3308923237003
 21
314.4350329138644
 31
0.0
  0
LINE
  5
1B7
330
1F
100
AcDbEntity
  8
0
 62
   250
420
  2500134
370
    -3
100
AcDbLine
 10
948.1603763135007
 20
315.2393818527214
 30
0.0
 11
947.3203779105266
 21
315.4818685047594
 31
0.0
  0
LINE
  5
1B8
330
1F
100
AcDbEntity
  8
0
 62
   250
420
  2500134
370
    -3
100
AcDbLine
 10
947.320377675664
 20
315.1227377269988
 30
0.0
 11
948.0368469017368
 21
314.9159108767291
 31
0.0
  0
LINE
  5
1B9
330
1F
100
AcDbEntity
  8
0
 62
   250
420
  2500134
370
    -3
100
AcDbLine
 10
511.1153890361485
 20
448.3807341474884
 30
0.0
 11
513.7153841501975
 21
450.6323959659703
 31
0.0
  0
LINE
  5
1BA
330
1F
100
AcDbEntity
  8
0
 62
   250
420
  2500134
370
    -3
100
AcDbLine
 10
506.4403865931729
 20
411.1632903041739
 30
0.0
 11
506.4403865931729
 21
411.8561106272016
 31
0.0
  0
LINE
  5
1BB
330
1F
100
AcDbEntity
  8
0
 62
   250
420
  2500134
370
    -3
100
AcDbLine
 10
506.4403865931729
 20
411.8561106272011
 30
0.0
 11
512.0903865931729
 21
416.7491541585831
 31
0.0
  0
ELLIPSE
  5
1BC
330
1F
100
AcDbEntity
  8
0
 62
   250
420
  2500134
370
    -3
100
AcDbEllipse
 10
512.090386593174
 20
416.9656605095287
 30
0.0
 11
0.06933752452815416
 21
0.2401922307076306
 31
0.0
210
0.0
220
0.0
230
1.0
 40
0.4330127018922217
 41
3.729595257140026
 42
5.300391583934923
  0
LINE
  5
1BD
330
1F
100
AcDbEntity
  8
0
 62
   250
420
  2500134
370
    -3
100
AcDbLine
 10
512.2153865931737
 20
417.073913685003
 30
0.0
 11
512.2153865931737
 21
438.4354286112736
 31
0.0
  0
LINE
  5
1BE
330
1F
100
AcDbEntity
  8
0
 62
   250
420
  2500134
370
    -3
100
AcDbLine
 10
947.9403872930484
 20
298.2047099351864
 30
0.0
 11
953.7153763134977
 21
296.5376142024245
 31
0.0
  0
LINE
  5
1BF
330
1F
100
AcDbEntity
  8
0
 62
   250
420
  2500134
370
    -3
100
AcDbLine
 10
947.9500367255207
 20
291.6778663421258
 30
0.0
 11
948.0653763134981
 21
291.6445706710424
 31
0.0
  0
LINE
  5
1C0
330
1F
100
AcDbEntity
  8
0
 62
   250
420
  2500134
370
    -3
100
AcDbLine
 10
943.4788235545086
 20
315.0955434727623
 30
0.0
 11
947.5403763134981
 21
313.9230741833971
 31
0.0
  0
LINE
  5
1C1
330
1F
100
AcDbEntity
  8
0
 62
   250
420
  2500134
370
    -3
100
AcDbLine
 10
512.215386593175
 20
417.0739136850025
 30
0.0
 11
528.6323326788021
 21
412.3347495640984
 31
0.0
  0
LINE
  5
1C2
330
1F
100
AcDbEntity
  8
0
 62
   250
420
  2500134
370
    -3
100
AcDbLine
 10
557.7844420395833
 20
403.919260470652
 30
0.0
 11
875.0385448585345
 21
312.3358896386339
 31
0.0
  0
LINE
  5
1C3
330
1F
100
AcDbEntity
  8
0
 62
   250
420
  2500134
370
    -3
100
AcDbLine
 10
904.7596024791702
 20
303.7561593296967
 30
0.0
 11
947.5403763134982
 21
291.4064136850017
 31
0.0
  0
LINE
  5
1C4
330
1F
100
AcDbEntity
  8
0
 62
   250
420
  2500134
370
    -3
100
AcDbLine
 10
512.0903865931748
 20
416.7491541585831
 30
0.0
 11
528.3176482736105
 21
412.0647472088781
 31
0.0
  0
LINE
  5
1C5
330
1F
100
AcDbEntity
  8
0
 62
   250
420
  2500134
370
    -3
100
AcDbLine
 10
557.7844418019308
 20
403.5584166210126
 30
0.0
 11
874.7238604533434
 21
312.0658872834137
 31
0.0
  0
LINE
  5
1C6
330
1F
100
AcDbEntity
  8
0
 62
   250
420
  2500134
370
    -3
100
AcDbLine
 10
904.7596022415177
 20
303.3953154800573
 30
0.0
 11
947.4153763134982
 21
291.0816541585823
 31
0.0
  0
LINE
  5
1C7
330
1F
100
AcDbEntity
  8
0
 62
   250
420
  2500134
370
    -3
100
AcDbLine
 10
506.4403865931752
 20
411.856110627201
 30
0.0
 11
522.628154933188
 21
407.1831044228582
 31
0.0
  0
LINE
  5
1C8
330
1F
100
AcDbEntity
  8
0
 62
   250
420
  2500134
370
    -3
100
AcDbLine
 10
563.5513576299389
 20
395.3695933763227
 30
0.0
 11
869.0343671129212
 21
307.1842444973935
 31
0.0
  0
LINE
  5
1C9
330
1F
100
AcDbEntity
  8
0
 62
   250
420
  2500134
370
    -3
100
AcDbLine
 10
909.9615191437136
 20
295.3695933763221
 30
0.0
 11
941.7653763134979
 21
286.1886106272003
 31
0.0
  0
SPLINE
  5
1CA
330
1F
100
AcDbEntity
  8
0
 62
   250
420
  2500134
370
    -3
100
AcDbSpline
210
0.0
220
0.0
230
1.0
 70
     8
 71
     3
 72
    10
 73
     6
 74
     0
 42
0.000000001
 43
0.00000001
 40
0.0
 40
0.0
 40
0.0
 40
0.0
 40
0.0097262773816141
 40
0.0097262773816141
 40
0.0194765046028269
 40
0.0194765046028269
 40
0.0194765046028269
 40
0.0194765046028269
 10
930.3809843153143
 20
318.8438501237713
 30
0.0
 10
933.1952317148331
 20
318.0390008439269
 30
0.0
 10
936.0106000579826
 20
317.2335693592748
 30
0.0
 10
941.6460126084191
 20
315.6208433406264
 30
0.0
 10
944.468348092496
 20
314.812891800781
 30
0.0
 10
947.2895177865269
 20
314.0050077789714
 30
0.0
  0
LINE
  5
1CB
330
1F
100
AcDbEntity
  8
0
 62
   250
420
  2500134
370
    -3
100
AcDbLine
 10
904.8221565431157
 20
326.1534434913053
 30
0.0
 11
930.3809746384835
 21
318.8438528912574
 31
0.0
  0
LINE
  5
1CC
330
1F
100
AcDbEntity
  8
0
 62
   250
420
  2500134
370
    -3
100
AcDbLine
 10
706.7161004930629
 20
382.8099821353387
 30
0.0
 11
894.5624495655126
 21
329.0876268092861
 31
0.0
  0
LINE
  5
1CD
330
1F
100
AcDbEntity
  8
0
 62
   250
420
  2500134
370
    -3
100
AcDbLine
 10
657.2982548919948
 20
396.9430386144116
 30
0.0
 11
677.9782300787621
 21
391.0287529197295
 31
0.0
  0
LINE
  5
1CE
330
1F
100
AcDbEntity
  8
0
 62
   250
420
  2500134
370
    -3
100
AcDbLine
 10
557.7914125365189
 20
425.4010947267112
 30
0.0
 11
587.808628606316
 21
416.8164426663266
 31
0.0
  0
LINE
  5
1CF
330
1F
100
AcDbEntity
  8
0
 62
   250
420
  2500134
370
    -3
100
AcDbLine
 10
510.9493192084037
 20
438.797509373123
 30
0.0
 11
547.3434114465223
 21
428.3891284562745
 31
0.0
  0
LINE
  5
1D0
330
1F
100
AcDbEntity
  8
0
 62
   250
420
  2500134
370
    -3
100
AcDbLine
 10
948.1928229146722
 20
324.1432320531225
 30
0.0
 11
720.7737924098878
 21
390.4067378163762
 31
0.0
  0
LINE
  5
1D1
330
1F
100
AcDbEntity
  8
0
 62
   250
420
  2500134
370
    -3
100
AcDbLine
 10
590.0447016080275
 20
428.497516070713
 30
0.0
 11
513.8821323462331
 21
450.6891454872185
 31
0.0
  0
LINE
  5
1D2
330
1F
100
AcDbEntity
  8
0
 62
   250
420
  2500134
370
    -3
100
AcDbLine
 10
947.7055173444304
 20
291.2682907748307
 30
0.0
 11
947.8739403522982
 21
291.2196712403656
 31
0.0
  0
LINE
  5
1D3
330
1F
100
AcDbEntity
  8
0
 62
   250
420
  2500134
370
    -3
100
AcDbLine
 10
947.6067993613976
 20
314.456230517295
 30
0.0
 11
947.3203665999212
 21
314.5389165332666
 31
0.0
  0
LINE
  5
1D4
330
1F
100
AcDbEntity
  8
0
 62
   250
420
  2500134
370
    -3
100
AcDbLine
 10
443.441720587803
 20
291.351596458505
 30
0.0
 11
567.8103381899942
 21
399.0579787355548
 31
0.0
  0
LINE
  5
1D5
330
1F
100
AcDbEntity
  8
0
 62
   250
420
  2500134
370
    -3
100
AcDbLine
 10
422.7437134373541
 20
297.3265964585042
 30
0.0
 11
443.4417205878024
 21
291.3515964585042
 31
0.0
  0
ELLIPSE
  5
1D6
330
1F
100
AcDbEntity
  8
0
 62
   250
420
  2500134
370
    -3
100
AcDbEllipse
 10
432.5817620243467
 20
327.0924529109883
 30
0.0
 11
0.1636634176772677
 21
-0.1889822365049277
 31
0.0
210
0.0
220
0.0
230
1.0
 40
0.7500000000000001
 41
2.284520705739659
 42
3.855317032525653
  0
LINE
  5
1D7
330
1F
100
AcDbEntity
  8
0
 62
   250
420
  2500134
370
    -3
100
AcDbLine
 10
432.3652556734009
 20
327.1549529109888
 30
0.0
 11
432.5500512243
 21
327.3149905525738
 31
0.0
  0
ELLIPSE
  5
1D8
330
1F
100
AcDbEntity
  8
0
 62
   250
420
  2500134
370
    -3
100
AcDbEllipse
 10
433.6036720008113
 20
326.7974529109886
 30
0.0
 11
0.1636634176772671
 21
-0.1889822365049284
 31
0.0
210
0.0
220
0.0
230
1.0
 40
0.7500000000000018
 41
0.7137243789447654
 42
2.28452070573841
  0
ELLIPSE
  5
1D9
330
1F
100
AcDbEntity
  8
0
 62
   250
420
  2500134
370
    -3
100
AcDbEllipse
 10
435.3443788310601
 20
317.8512064455772
 30
0.0
 11
0.392800296814885
 21
-0.4535540510590662
 31
0.0
210
0.0
220
0.0
230
-1.0
 40
0.7499991274258411
 41
5.569475320490856
 42
7.140271647282387
  0
ELLIPSE
  5
1DA
330
1F
100
AcDbEntity
  8
0
 62
   250
420
  2500134
370
    -3
100
AcDbEllipse
 10
558.8229174150428
 20
425.7904084827344
 30
0.0
 11
-0.3948861532124282
 21
0.4517354601989361
 31
0.0
210
0.0
220
0.0
230
-1.0
 40
0.7517413713203616
 41
2.431341819043189
 42
3.141522682347338
  0
LINE
  5
1DB
330
1F
100
AcDbEntity
  8
0
 62
   250
420
  2500134
370
    -3
100
AcDbLine
 10
559.3437391147545
 20
425.6414581914378
 30
0.0
 11
435.8639983046885
 21
317.7012052240902
 31
0.0
  0
ELLIPSE
  5
1DC
330
1F
100
AcDbEntity
  8
0
 62
   250
420
  2500134
370
    -3
100
AcDbEllipse
 10
435.3443788310598
 20
326.3382554026648
 30
0.0
 11
0.3928002968148666
 21
-0.4535540510590457
 31
0.0
210
0.0
220
0.0
230
-1.0
 40
0.749999127425922
 41
3.998678993695958
 42
5.569475320490641
  0
ELLIPSE
  5
1DD
330
1F
100
AcDbEntity
  8
0
 62
   250
420
  2500134
370
    -3
100
AcDbEllipse
 10
558.8229174150425
 20
434.277457439822
 30
0.0
 11
-0.3948861532125954
 21
0.4517354601987901
 31
0.0
210
0.0
220
0.0
230
-1.0
 40
0.7517413713201744
 41
0.8605454922485709
 42
2.431341819044347
  0
LINE
  5
1DE
330
1F
100
AcDbEntity
  8
0
 62
   250
420
  2500134
370
    -3
100
AcDbLine
 10
558.822917415043
 20
434.7970726820931
 30
0.0
 11
435.3443788310608
 21
326.8578706449366
 31
0.0
  0
ELLIPSE
  5
1DF
330
1F
100
AcDbEntity
  8
0
 62
   250
420
  2500134
370
    -3
100
AcDbEllipse
 10
430.841055194096
 20
319.1512040026017
 30
0.0
 11
-0.3928002968148379
 21
0.453554051059063
 31
0.0
210
0.0
220
0.0
230
-1.0
 40
0.7499991274259661
 41
3.998678993695874
 42
5.569475320490824
  0
ELLIPSE
  5
1E0
330
1F
100
AcDbEntity
  8
0
 62
   250
420
  2500134
370
    -3
100
AcDbEllipse
 10
430.841055194096
 20
327.6382529596894
 30
0.0
 11
-0.3928002968149136
 21
0.4535540510590486
 31
0.0
210
0.0
220
0.0
230
-1.0
 40
0.7499991274257974
 41
5.569475320490886
 42
7.140271647284394
  0
ELLIPSE
  5
1E1
330
1F
100
AcDbEntity
  8
0
 62
   250
420
  2500134
370
    -3
100
AcDbEllipse
 10
556.0514805155045
 20
435.0700633042211
 30
0.0
 11
-0.3949186959960223
 21
0.4517219350259635
 31
0.0
210
0.0
220
0.0
230
-1.0
 40
0.7517377035643165
 41
0.0068889118767966
 42
0.8606034445364731
  0
LINE
  5
1E2
330
1F
100
AcDbEntity
  8
0
 62
   250
420
  2500134
370
    -3
100
AcDbLine
 10
556.0514805155043
 20
435.5896785464918
 30
0.0
 11
558.8229174150428
 21
434.7970726820929
 31
0.0
  0
LINE
  5
1E3
330
1F
100
AcDbEntity
  8
0
 62
   250
420
  2500134
370
    -3
100
AcDbLine
 10
559.3437391147544
 20
434.1285071485253
 30
0.0
 11
559.3437391147544
 21
425.6414581914377
 31
0.0
  0
LINE
  5
1E4
330
1F
100
AcDbEntity
  8
0
 62
   250
420
  2500134
370
    -3
100
AcDbLine
 10
557.7844388278003
 20
424.0856924570724
 30
0.0
 11
557.7844388278003
 21
402.8346218660832
 31
0.0
  0
ELLIPSE
  5
1E5
330
1F
100
AcDbEntity
  8
0
 62
   250
420
  2500134
370
    -3
100
AcDbEllipse
 10
558.0014496365068
 20
402.7725587393174
 30
0.0
 11
-0.153449814426442
 21
0.1969783667212897
 31
0.0
210
0.0
220
0.0
230
1.0
 40
0.7542950918492614
 41
0.7688712853491804
 42
2.340071644138811
  0
LINE
  5
1E6
330
1F
100
AcDbEntity
  8
0
 62
   250
420
  2500134
370
    -3
100
AcDbLine
 10
558.0014496365053
 20
402.5560523883711
 30
0.0
 11
567.8103381899937
 21
399.7507990585823
 31
0.0
  0
LINE
  5
1E7
330
1F
100
AcDbEntity
  8
0
 62
   250
420
  2500134
370
    -3
100
AcDbLine
 10
567.8103381899942
 20
399.7507990585826
 30
0.0
 11
567.8103381899942
 21
399.0579787355548
 31
0.0
  0
LINE
  5
1E8
330
1F
100
AcDbEntity
  8
0
 62
   250
420
  2500134
370
    -3
100
AcDbLine
 10
433.8201783517567
 20
318.3344555498461
 30
0.0
 11
433.8201783517567
 21
326.734952910988
 31
0.0
  0
LINE
  5
1E9
330
1F
100
AcDbEntity
  8
0
 62
   250
420
  2500134
370
    -3
100
AcDbLine
 10
433.8201787585411
 20
318.3650233583818
 30
0.0
 11
433.6062191343434
 21
318.1797288884424
 31
0.0
  0
ELLIPSE
  5
1EA
330
1F
100
AcDbEntity
  8
0
 62
   250
420
  2500134
370
    -3
100
AcDbEllipse
 10
433.6036720008026
 20
318.3969555498495
 30
0.0
 11
0.1636634176771951
 21
-0.1889822365048439
 31
0.0
210
0.0
220
0.0
230
1.0
 40
0.7500000000000017
 41
5.437878336618442
 42
6.996909686118824
  0
ELLIPSE
  5
1EB
330
1F
100
AcDbEntity
  8
0
 62
   250
420
  2500134
370
    -3
100
AcDbEllipse
 10
433.6123322548498
 20
317.658384901063
 30
0.0
 11
0.3927922024247866
 21
-0.4535573676110727
 31
0.0
210
0.0
220
0.0
230
1.0
 40
0.7500000000000001
 41
2.296285683045986
 42
3.855317032535774
  0
LINE
  5
1EC
330
1F
100
AcDbEntity
  8
0
 62
   250
420
  2500134
370
    -3
100
AcDbLine
 10
432.5792148907969
 20
318.4761994766772
 30
0.0
 11
433.8201807111065
 21
319.5509074022935
 31
0.0
  0
ELLIPSE
  5
1ED
330
1F
100
AcDbEntity
  8
0
 62
   250
420
  2500134
370
    -3
100
AcDbEllipse
 10
432.5731017703075
 20
317.9583849010629
 30
0.0
 11
0.3927922024247866
 21
-0.4535573676110727
 31
0.0
210
0.0
220
0.0
230
1.0
 40
0.7500000000000001
 41
0.7137243789445801
 42
2.272755728467017
  0
LINE
  5
1EE
330
1F
100
AcDbEntity
  8
0
 62
   250
420
  2500134
370
    -3
100
AcDbLine
 10
433.8201811178824
 20
320.0144579453904
 30
0.0
 11
432.3652556733904
 21
318.7544555498479
 31
0.0
  0
ELLIPSE
  5
1EF
330
1F
100
AcDbEntity
  8
0
 62
   250
420
  2500134
370
    -3
100
AcDbEllipse
 10
432.5817620243376
 20
318.6919555498487
 30
0.0
 11
0.1636634176771951
 21
-0.1889822365048439
 31
0.0
210
0.0
220
0.0
230
1.0
 40
0.7500000000000017
 41
3.855317032534556
 42
5.414348382040462
  0
ELLIPSE
  5
1F0
330
1F
100
AcDbEntity
  8
0
 62
   250
420
  2500134
370
    -3
100
AcDbEllipse
 10
432.5731017703073
 20
295.3551218622895
 30
0.0
 11
0.392792202424816
 21
-0.4535573676111065
 31
0.0
210
0.0
220
0.0
230
1.0
 40
0.7500000000000001
 41
5.426113359329455
 42
6.996909686124445
  0
ELLIPSE
  5
1F1
330
1F
100
AcDbEntity
  8
0
 62
   250
420
  2500134
370
    -3
100
AcDbEllipse
 10
433.6123322548496
 20
295.0551218622894
 30
0.0
 11
0.392792202424816
 21
-0.4535573676111065
 31
0.0
210
0.0
220
0.0
230
1.0
 40
0.7500000000000001
 41
3.855317032534928
 42
5.426113359329824
  0
LINE
  5
1F2
330
1F
100
AcDbEntity
  8
0
 62
   250
420
  2500134
370
    -3
100
AcDbLine
 10
430.8410551940972
 20
328.1578682019612
 30
0.0
 11
556.0514805155044
 21
435.5896785464917
 31
0.0
  0
LINE
  5
1F3
330
1F
100
AcDbEntity
  8
0
 62
   250
420
  2500134
370
    -3
100
AcDbLine
 10
435.3443788310608
 20
326.8578706449358
 30
0.0
 11
430.841055194097
 21
328.1578682019604
 31
0.0
  0
LINE
  5
1F4
330
1F
100
AcDbEntity
  8
0
 62
   250
420
  2500134
370
    -3
100
AcDbLine
 10
430.3214357204675
 20
319.3012052240894
 30
0.0
 11
430.3214357204675
 21
327.7882541811771
 31
0.0
  0
LINE
  5
1F5
330
1F
100
AcDbEntity
  8
0
 62
   250
420
  2500134
370
    -3
100
AcDbLine
 10
430.841055194097
 20
318.6315887603313
 30
0.0
 11
432.529800500118
 21
318.1440899818192
 31
0.0
  0
ELLIPSE
  5
1F6
330
1F
100
AcDbEntity
  8
0
 62
   250
420
  2500134
370
    -3
100
AcDbEllipse
 10
432.5298005001183
 20
317.927583630874
 30
0.0
 11
-0.1636634176769944
 21
0.1889822365046136
 31
0.0
210
0.0
220
0.0
230
-1.0
 40
0.7500000000000002
 41
0.8570719478492432
 42
2.42786827464636
  0
LINE
  5
1F7
330
1F
100
AcDbEntity
  8
0
 62
   250
420
  2500134
370
    -3
100
AcDbLine
 10
432.7463068510639
 20
317.8650836308736
 30
0.0
 11
432.7463068510639
 21
295.3484231324782
 31
0.0
  0
LINE
  5
1F8
330
1F
100
AcDbEntity
  8
0
 62
   250
420
  2500134
370
    -3
100
AcDbLine
 10
432.5298005001187
 20
295.1944167815328
 30
0.0
 11
432.7463072626921
 21
295.3819171380126
 31
0.0
  0
ELLIPSE
  5
1F9
330
1F
100
AcDbEntity
  8
0
 62
   250
420
  2500134
370
    -3
100
AcDbEllipse
 10
432.529800500118
 20
295.4109231324785
 30
0.0
 11
-0.1636634176769944
 21
0.1889822365046135
 31
0.0
210
0.0
220
0.0
230
-1.0
 40
0.7500000000000002
 41
2.427868274645916
 42
3.998664601440458
  0
LINE
  5
1FA
330
1F
100
AcDbEntity
  8
0
 62
   250
420
  2500134
370
    -3
100
AcDbLine
 10
422.7437134373543
 20
298.0194167815326
 30
0.0
 11
432.7463258682397
 21
306.6819332508895
 31
0.0
  0
LINE
  5
1FB
330
1F
100
AcDbEntity
  8
0
 62
   250
420
  2500134
370
    -3
100
AcDbLine
 10
432.529800500118
 20
295.1944167815317
 30
0.0
 11
422.7437134373538
 21
298.0194167815318
 31
0.0
  0
LINE
  5
1FC
330
1F
100
AcDbEntity
  8
0
 62
   250
420
  2500134
370
    -3
100
AcDbLine
 10
422.7437134373534
 20
298.0194167815319
 30
0.0
 11
422.7437134373534
 21
297.3265964585042
 31
0.0
  0
LINE
  5
1FD
330
1F
100
AcDbEntity
  8
0
 62
   250
420
  2500134
370
    -3
100
AcDbLine
 10
435.8639983046885
 20
326.1882541811777
 30
0.0
 11
559.3437391147545
 21
434.1285071485253
 31
0.0
  0
LINE
  5
1FE
330
1F
100
AcDbEntity
  8
0
 62
   250
420
  2500134
370
    -3
100
AcDbLine
 10
435.8639983046878
 20
326.1882541811771
 30
0.0
 11
435.8639983046878
 21
317.7012052240896
 31
0.0
  0
LINE
  5
1FF
330
1F
100
AcDbEntity
  8
0
 62
   250
420
  2500134
370
    -3
100
AcDbLine
 10
432.3652556733994
 20
327.1549529109878
 30
0.0
 11
432.3652556733994
 21
318.7544555498456
 31
0.0
  0
LINE
  5
200
330
1F
100
AcDbEntity
  8
0
 62
   250
420
  2500134
370
    -3
100
AcDbLine
 10
432.5817620243465
 20
327.3089592619344
 30
0.0
 11
433.6036720008108
 21
327.0139592619346
 31
0.0
  0
LINE
  5
201
330
1F
100
AcDbEntity
  8
0
 62
   250
420
  2500134
370
    -3
100
AcDbLine
 10
443.441720587802
 20
291.3515964585042
 30
0.0
 11
443.441720587802
 21
292.0444167815318
 31
0.0
  0
LINE
  5
202
330
1F
100
AcDbEntity
  8
0
 62
   250
420
  2500134
370
    -3
100
AcDbLine
 10
443.4417205878022
 20
292.0444167815315
 30
0.0
 11
433.6556335250382
 21
294.8694167815315
 31
0.0
  0
ELLIPSE
  5
203
330
1F
100
AcDbEntity
  8
0
 62
   250
420
  2500134
370
    -3
100
AcDbEllipse
 10
433.6556335250389
 20
295.0859231324781
 30
0.0
 11
-0.1636634176769944
 21
0.1889822365046135
 31
0.0
210
0.0
220
0.0
230
-1.0
 40
0.7500000000000002
 41
3.998664601442589
 42
5.569460928237485
  0
LINE
  5
204
330
1F
100
AcDbEntity
  8
0
 62
   250
420
  2500134
370
    -3
100
AcDbLine
 10
433.4391271740915
 20
295.1484231324786
 30
0.0
 11
433.4391271740915
 21
317.6650836308742
 31
0.0
  0
ELLIPSE
  5
205
330
1F
100
AcDbEntity
  8
0
 62
   250
420
  2500134
370
    -3
100
AcDbEllipse
 10
433.655633525038
 20
317.6025836308735
 30
0.0
 11
-0.1636634176769944
 21
0.1889822365046136
 31
0.0
210
0.0
220
0.0
230
-1.0
 40
0.7500000000000002
 41
5.569460928238374
 42
7.140257255031104
  0
LINE
  5
206
330
1F
100
AcDbEntity
  8
0
 62
   250
420
  2500134
370
    -3
100
AcDbLine
 10
433.6556335250385
 20
317.8190899818192
 30
0.0
 11
435.344378831061
 21
317.3315912033068
 31
0.0
  0
LINE
  5
207
330
1F
100
AcDbEntity
  8
0
 62
   250
420
  2500134
370
    -3
100
AcDbLine
 10
433.6123322548496
 20
294.5355066200175
 30
0.0
 11
432.5731017703071
 21
294.8355066200179
 31
0.0
  0
LINE
  5
208
330
1F
100
AcDbEntity
  8
0
 62
   250
420
  2500134
370
    -3
100
AcDbLine
 10
433.4391271740928
 20
317.6650836308745
 30
0.0
 11
433.6239227249908
 21
317.8251212724587
 31
0.0
  0
LINE
  5
209
330
1F
100
AcDbEntity
  8
0
 62
   250
420
  2500134
370
    -3
100
AcDbLine
 10
433.4391271740926
 20
295.1484231324791
 30
0.0
 11
557.7844388278003
 21
402.834621866083
 31
0.0
  0
LINE
  5
20A
330
1F
100
AcDbEntity
  8
0
 62
   250
420
  2500134
370
    -3
100
AcDbLine
 10
433.6556335250389
 20
294.8694167815328
 30
0.0
 11
558.0014496365059
 21
402.5560523883716
 31
0.0
  0
LINE
  5
20B
330
1F
100
AcDbEntity
  8
0
 62
   250
420
  2500134
370
    -3
100
AcDbLine
 10
443.4417205878028
 20
292.0444167815327
 30
0.0
 11
567.810338189994
 21
399.7507990585827
 31
0.0
  0
LINE
  5
20C
330
1F
100
AcDbEntity
  8
0
 62
   250
420
  2500134
370
    -3
100
AcDbLine
 10
435.7383789983284
 20
317.3986964976257
 30
0.0
 11
559.2177864498858
 21
425.3386580584522
 31
0.0
  0
LINE
  5
20D
330
1F
100
AcDbEntity
  8
0
 62
   250
420
  2500134
370
    -3
100
AcDbLine
 10
555.6590073863302
 20
435.5239027983847
 30
0.0
 11
430.4494732078062
 21
328.0928570634541
 31
0.0
  0
LINE
  5
20E
330
1F
100
AcDbEntity
  8
0
 62
   250
420
  2500134
370
    -3
100
AcDbLine
 10
433.8202116938664
 20
318.632139169495
 30
0.0
 11
433.2195423588657
 21
318.1119442661101
 31
0.0
  0
LINE
  5
20F
330
1F
100
AcDbEntity
  8
0
 62
   250
420
  2500134
370
    -3
100
AcDbLine
 10
432.9659200337937
 20
294.9015870642199
 30
0.0
 11
433.1208271365318
 21
295.0357405504176
 31
0.0
  0
ELLIPSE
  5
210
330
1F
100
AcDbEntity
  8
0
 62
   250
420
  2500134
370
    -3
100
AcDbEllipse
 10
560.4772510434766
 20
436.6731954309898
 30
0.0
 11
0.1527364034207502
 21
-0.1975961987759089
 31
0.0
210
0.0
220
0.0
230
-1.0
 40
0.750380157326949
 41
3.941820321555212
 42
5.512966212288213
  0
ELLIPSE
  5
211
330
1F
100
AcDbEntity
  8
0
 62
   250
420
  2500134
370
    -3
100
AcDbEllipse
 10
559.4577221076362
 20
436.9702574726575
 30
0.0
 11
-0.1527364034226343
 21
0.1975961987745939
 31
0.0
210
0.0
220
0.0
230
-1.0
 40
0.7503801573260198
 41
5.51296621229737
 42
7.083412975153526
  0
LINE
  5
212
330
1F
100
AcDbEntity
  8
0
 62
   250
420
  2500134
370
    -3
100
AcDbLine
 10
559.2417202144491
 20
437.0331943458924
 30
0.0
 11
559.4260851942726
 21
437.1928591019877
 31
0.0
  0
ELLIPSE
  5
213
330
1F
100
AcDbEntity
  8
0
 62
   250
420
  2500134
370
    -3
100
AcDbEllipse
 10
561.328302662792
 20
436.4685242084806
 30
0.0
 11
0.3907346395645501
 21
-0.4553457629923963
 31
0.0
210
0.0
220
0.0
230
1.0
 40
0.748243096985605
 41
0.7171119543989217
 42
2.287908281196345
  0
LINE
  5
214
330
1F
100
AcDbEntity
  8
0
 62
   250
420
  2500134
370
    -3
100
AcDbLine
 10
677.3402958564271
 20
538.400434377972
 30
0.0
 11
638.7947303741323
 21
504.7056917292314
 31
0.0
  0
LINE
  5
215
330
1F
100
AcDbEntity
  8
0
 62
   250
420
  2500134
370
    -3
100
AcDbLine
 10
575.7338320106376
 20
449.5807839747364
 30
0.0
 11
561.328302662792
 21
436.9881394507512
 31
0.0
  0
LINE
  5
216
330
1F
100
AcDbEntity
  8
0
 62
   250
420
  2500134
370
    -3
100
AcDbLine
 10
671.709260292898
 20
523.8671520621584
 30
0.0
 11
638.7657837279368
 21
495.0694952909518
 31
0.0
  0
LINE
  5
217
330
1F
100
AcDbEntity
  8
0
 62
   250
420
  2500134
370
    -3
100
AcDbLine
 10
575.7048853644422
 20
439.944587536457
 30
0.0
 11
569.4683540768277
 21
434.492901612858
 31
0.0
  0
ELLIPSE
  5
218
330
1F
100
AcDbEntity
  8
0
 62
   250
420
  2500134
370
    -3
100
AcDbEllipse
 10
558.6067148136467
 20
437.2615183203923
 30
0.0
 11
0.3907024290455943
 21
-0.4553587727692598
 31
0.0
210
0.0
220
0.0
230
1.0
 40
0.7482464139025506
 41
2.287965465625987
 42
3.858761792417061
  0
LINE
  5
219
330
1F
100
AcDbEntity
  8
0
 62
   250
420
  2500134
370
    -3
100
AcDbLine
 10
558.0883144914626
 20
437.4125655861403
 30
0.0
 11
558.0883144914626
 21
436.3598555223276
 31
0.0
  0
LINE
  5
21A
330
1F
100
AcDbEntity
  8
0
 62
   250
420
  2500134
370
    -3
100
AcDbLine
 10
561.8467198711761
 20
435.2748973222467
 30
0.0
 11
561.8467198711761
 21
436.3174720225695
 31
0.0
  0
LINE
  5
21B
330
1F
100
AcDbEntity
  8
0
 62
   250
420
  2500134
370
    -3
100
AcDbLine
 10
561.3283026627919
 20
436.9881394507513
 30
0.0
 11
558.6067148136469
 21
437.7811335626633
 31
0.0
  0
LINE
  5
21C
330
1F
100
AcDbEntity
  8
0
 62
   250
420
  2500134
370
    -3
100
AcDbLine
 10
560.6932529366633
 20
436.6102585577548
 30
0.0
 11
560.6932529366633
 21
435.6078745513331
 31
0.0
  0
LINE
  5
21D
330
1F
100
AcDbEntity
  8
0
 62
   250
420
  2500134
370
    -3
100
AcDbLine
 10
559.2417202144488
 20
436.0268959634865
 30
0.0
 11
559.2417202144488
 21
437.0331943458922
 31
0.0
  0
LINE
  5
21E
330
1F
100
AcDbEntity
  8
0
 62
   250
420
  2500134
370
    -3
100
AcDbLine
 10
559.457722107636
 20
437.1867638236041
 30
0.0
 11
560.4772510434763
 21
436.8897017819363
 31
0.0
  0
LINE
  5
21F
330
1F
100
AcDbEntity
  8
0
 62
   250
420
  2500134
370
    -3
100
AcDbLine
 10
638.6637625470942
 20
461.1116644969507
 30
0.0
 11
651.8029855625377
 21
472.4905654143142
 31
0.0
  0
LINE
  5
220
330
1F
100
AcDbEntity
  8
0
 62
   250
420
  2500134
370
    -3
100
AcDbLine
 10
638.6616759932917
 20
460.4170371653234
 30
0.0
 11
651.3989851948867
 21
471.4478705097621
 31
0.0
  0
LINE
  5
221
330
1F
100
AcDbEntity
  8
0
 62
   250
420
  2500134
370
    -3
100
AcDbLine
 10
558.6067148136469
 20
437.7811335626632
 30
0.0
 11
575.7425571569069
 21
452.483859473779
 31
0.0
  0
LINE
  5
222
330
1F
100
AcDbEntity
  8
0
 62
   250
420
  2500134
370
    -3
100
AcDbLine
 10
638.8003879684883
 20
506.5881155938091
 30
0.0
 11
678.0688951104044
 21
540.2808915823427
 31
0.0
  0
LINE
  5
223
330
1F
100
AcDbEntity
  8
0
 62
   250
420
  2500134
370
    -3
100
AcDbLine
 10
588.4819362258638
 20
428.9529280944665
 30
0.0
 11
590.798200662258
 21
430.9588719382663
 31
0.0
  0
LINE
  5
224
330
1F
100
AcDbEntity
  8
0
 62
   250
420
  2500134
370
    -3
100
AcDbLine
 10
638.6978131413418
 20
472.4411531765832
 30
0.0
 11
658.3923075120872
 21
489.4970856163383
 31
0.0
  0
LINE
  5
225
330
1F
100
AcDbEntity
  8
0
 62
   250
420
  2500134
370
    -3
100
AcDbLine
 10
588.0788708132449
 20
429.0703695586978
 30
0.0
 11
590.3938778364611
 21
431.0752244507426
 31
0.0
  0
LINE
  5
226
330
1F
100
AcDbEntity
  8
0
 62
   250
420
  2500134
370
    -3
100
AcDbLine
 10
638.6992185211362
 20
472.9088766221335
 30
0.0
 11
658.6643390860394
 21
490.1991782209587
 31
0.0
  0
LINE
  5
227
330
1F
100
AcDbEntity
  8
0
 62
   250
420
  2500134
370
    -3
100
AcDbLine
 10
561.8467198711761
 20
436.3174720225695
 30
0.0
 11
575.7304462745766
 21
448.453980653711
 31
0.0
  0
LINE
  5
228
330
1F
100
AcDbEntity
  8
0
 62
   250
420
  2500134
370
    -3
100
AcDbLine
 10
638.7913446380709
 20
503.5788884082057
 30
0.0
 11
676.6818334418581
 21
536.7009934572294
 31
0.0
  0
LINE
  5
229
330
1F
100
AcDbEntity
  8
0
 62
   250
420
  2500134
370
    -3
100
AcDbLine
 10
638.7649746174593
 20
494.8760898394707
 30
0.0
 11
671.5963415333437
 21
523.5757455636873
 31
0.0
  0
LINE
  5
22A
330
1F
100
AcDbEntity
  8
0
 62
   250
420
  2500134
370
    -3
100
AcDbLine
 10
569.6335634911804
 20
434.4446218431276
 30
0.0
 11
575.7041542007345
 21
439.7512502224211
 31
0.0
  0
LINE
  5
22B
330
1F
100
AcDbEntity
  8
0
 62
   250
420
  2500134
370
    -3
100
AcDbLine
 10
678.2262019452999
 20
540.6868325996687
 30
0.0
 11
638.8012697777816
 21
506.8598423582844
 31
0.0
  0
LINE
  5
22C
330
1F
100
AcDbEntity
  8
0
 62
   250
420
  2500134
370
    -3
100
AcDbLine
 10
575.7434100503267
 20
452.7555614281428
 30
0.0
 11
558.2160328168808
 21
437.7168946242638
 31
0.0
  0
LINE
  5
22D
330
1F
100
AcDbEntity
  8
0
 62
   250
420
  2500134
370
    -3
100
AcDbLine
 10
790.4168821015793
 20
191.8409008116438
 30
0.0
 11
914.7854997037705
 21
299.5472830886937
 31
0.0
  0
LINE
  5
22E
330
1F
100
AcDbEntity
  8
0
 62
   250
420
  2500134
370
    -3
100
AcDbLine
 10
769.7188749511304
 20
197.8159008116431
 30
0.0
 11
790.4168821015787
 21
191.840900811643
 31
0.0
  0
ELLIPSE
  5
22F
330
1F
100
AcDbEntity
  8
0
 62
   250
420
  2500134
370
    -3
100
AcDbEllipse
 10
779.556923538123
 20
227.5817572641272
 30
0.0
 11
0.1636634176772677
 21
-0.1889822365049277
 31
0.0
210
0.0
220
0.0
230
1.0
 40
0.7500000000000001
 41
2.284520705739659
 42
3.855317032528094
  0
LINE
  5
230
330
1F
100
AcDbEntity
  8
0
 62
   250
420
  2500134
370
    -3
100
AcDbLine
 10
779.3404171871772
 20
227.6442572641276
 30
0.0
 11
779.5252127380766
 21
227.8042949057128
 31
0.0
  0
ELLIPSE
  5
231
330
1F
100
AcDbEntity
  8
0
 62
   250
420
  2500134
370
    -3
100
AcDbEllipse
 10
780.5788335145876
 20
227.2867572641275
 30
0.0
 11
0.1636634176772671
 21
-0.1889822365049284
 31
0.0
210
0.0
220
0.0
230
1.0
 40
0.7500000000000018
 41
0.7137243789447654
 42
2.284520705737405
  0
ELLIPSE
  5
232
330
1F
100
AcDbEntity
  8
0
 62
   250
420
  2500134
370
    -3
100
AcDbEllipse
 10
782.3195403448362
 20
218.340510798716
 30
0.0
 11
0.3928002968149126
 21
-0.4535540510590029
 31
0.0
210
0.0
220
0.0
230
-1.0
 40
0.7499991274258752
 41
5.569475320490883
 42
7.140271647282469
  0
ELLIPSE
  5
233
330
1F
100
AcDbEntity
  8
0
 62
   250
420
  2500134
370
    -3
100
AcDbEllipse
 10
905.7980789288189
 20
326.2797128358733
 30
0.0
 11
-0.3948861532124282
 21
0.4517354601989361
 31
0.0
210
0.0
220
0.0
230
-1.0
 40
0.7517413713203616
 41
2.431341819043189
 42
3.141522682347338
  0
LINE
  5
234
330
1F
100
AcDbEntity
  8
0
 62
   250
420
  2500134
370
    -3
100
AcDbLine
 10
906.3189006285307
 20
326.1307625445767
 30
0.0
 11
782.8391598184647
 21
218.190509577229
 31
0.0
  0
ELLIPSE
  5
235
330
1F
100
AcDbEntity
  8
0
 62
   250
420
  2500134
370
    -3
100
AcDbEllipse
 10
782.319540344836
 20
226.8275597558037
 30
0.0
 11
0.3928002968148298
 21
-0.4535540510590745
 31
0.0
210
0.0
220
0.0
230
-1.0
 40
0.7499991274259674
 41
3.998678993695851
 42
5.569475320490533
  0
ELLIPSE
  5
236
330
1F
100
AcDbEntity
  8
0
 62
   250
420
  2500134
370
    -3
100
AcDbEllipse
 10
905.7980789288187
 20
334.7667617929608
 30
0.0
 11
-0.3948861532125954
 21
0.4517354601987901
 31
0.0
210
0.0
220
0.0
230
-1.0
 40
0.7517413713201744
 41
0.8605454922485709
 42
2.431341819042783
  0
LINE
  5
237
330
1F
100
AcDbEntity
  8
0
 62
   250
420
  2500134
370
    -3
100
AcDbLine
 10
905.7980789288191
 20
335.286377035232
 30
0.0
 11
782.319540344837
 21
227.3471749980754
 31
0.0
  0
ELLIPSE
  5
238
330
1F
100
AcDbEntity
  8
0
 62
   250
420
  2500134
370
    -3
100
AcDbEllipse
 10
777.8162167078722
 20
219.6405083557405
 30
0.0
 11
-0.3928002968148379
 21
0.453554051059063
 31
0.0
210
0.0
220
0.0
230
-1.0
 40
0.7499991274259661
 41
3.998678993695874
 42
5.569475320490877
  0
ELLIPSE
  5
239
330
1F
100
AcDbEntity
  8
0
 62
   250
420
  2500134
370
    -3
100
AcDbEllipse
 10
777.8162167078722
 20
228.1275573128282
 30
0.0
 11
-0.3928002968149136
 21
0.4535540510590486
 31
0.0
210
0.0
220
0.0
230
-1.0
 40
0.7499991274257974
 41
5.569475320490886
 42
7.140271647283753
  0
ELLIPSE
  5
23A
330
1F
100
AcDbEntity
  8
0
 62
   250
420
  2500134
370
    -3
100
AcDbEllipse
 10
903.0266420292808
 20
335.5593676573599
 30
0.0
 11
-0.3949186959960385
 21
0.4517219350259402
 31
0.0
210
0.0
220
0.0
230
-1.0
 40
0.7517377035643134
 41
0.0068889118769506
 42
0.8606034445363078
  0
LINE
  5
23B
330
1F
100
AcDbEntity
  8
0
 62
   250
420
  2500134
370
    -3
100
AcDbLine
 10
903.0266420292805
 20
336.0789828996306
 30
0.0
 11
905.7980789288189
 21
335.2863770352317
 31
0.0
  0
LINE
  5
23C
330
1F
100
AcDbEntity
  8
0
 62
   250
420
  2500134
370
    -3
100
AcDbLine
 10
906.3189006285306
 20
334.6178115016641
 30
0.0
 11
906.3189006285306
 21
326.1307625445766
 31
0.0
  0
LINE
  5
23D
330
1F
100
AcDbEntity
  8
0
 62
   250
420
  2500134
370
    -3
100
AcDbLine
 10
904.7596003415764
 20
324.5749968102111
 30
0.0
 11
904.7596003415764
 21
303.3239262192221
 31
0.0
  0
ELLIPSE
  5
23E
330
1F
100
AcDbEntity
  8
0
 62
   250
420
  2500134
370
    -3
100
AcDbEllipse
 10
904.9766111502829
 20
303.2618630924562
 30
0.0
 11
-0.153449814426442
 21
0.1969783667212897
 31
0.0
210
0.0
220
0.0
230
1.0
 40
0.7542950918492614
 41
0.7688712853491804
 42
2.340071644138811
  0
LINE
  5
23F
330
1F
100
AcDbEntity
  8
0
 62
   250
420
  2500134
370
    -3
100
AcDbLine
 10
904.9766111502815
 20
303.04535674151
 30
0.0
 11
914.7854997037699
 21
300.2401034117212
 31
0.0
  0
LINE
  5
240
330
1F
100
AcDbEntity
  8
0
 62
   250
420
  2500134
370
    -3
100
AcDbLine
 10
914.7854997037705
 20
300.2401034117214
 30
0.0
 11
914.7854997037705
 21
299.5472830886937
 31
0.0
  0
LINE
  5
241
330
1F
100
AcDbEntity
  8
0
 62
   250
420
  2500134
370
    -3
100
AcDbLine
 10
780.7953398655329
 20
218.8237599029849
 30
0.0
 11
780.7953398655329
 21
227.2242572641268
 31
0.0
  0
LINE
  5
242
330
1F
100
AcDbEntity
  8
0
 62
   250
420
  2500134
370
    -3
100
AcDbLine
 10
780.7953402723174
 20
218.8543277115206
 30
0.0
 11
780.5813806481196
 21
218.6690332415812
 31
0.0
  0
ELLIPSE
  5
243
330
1F
100
AcDbEntity
  8
0
 62
   250
420
  2500134
370
    -3
100
AcDbEllipse
 10
780.578833514579
 20
218.8862599029883
 30
0.0
 11
0.1636634176771951
 21
-0.1889822365048439
 31
0.0
210
0.0
220
0.0
230
1.0
 40
0.7500000000000017
 41
5.437878336618442
 42
6.996909686121858
  0
ELLIPSE
  5
244
330
1F
100
AcDbEntity
  8
0
 62
   250
420
  2500134
370
    -3
100
AcDbEllipse
 10
780.5874937686261
 20
218.1476892542019
 30
0.0
 11
0.3927922024247866
 21
-0.4535573676110727
 31
0.0
210
0.0
220
0.0
230
1.0
 40
0.7500000000000001
 41
2.296285683045986
 42
3.855317032535774
  0
LINE
  5
245
330
1F
100
AcDbEntity
  8
0
 62
   250
420
  2500134
370
    -3
100
AcDbLine
 10
779.5543764045732
 20
218.965503829816
 30
0.0
 11
780.7953422248828
 21
220.0402117554324
 31
0.0
  0
ELLIPSE
  5
246
330
1F
100
AcDbEntity
  8
0
 62
   250
420
  2500134
370
    -3
100
AcDbEllipse
 10
779.5482632840838
 20
218.4476892542017
 30
0.0
 11
0.3927922024247866
 21
-0.4535573676110727
 31
0.0
210
0.0
220
0.0
230
1.0
 40
0.7500000000000001
 41
0.7137243789445801
 42
2.272755728467017
  0
LINE
  5
247
330
1F
100
AcDbEntity
  8
0
 62
   250
420
  2500134
370
    -3
100
AcDbLine
 10
780.7953426316585
 20
220.503762298529
 30
0.0
 11
779.3404171871667
 21
219.2437599029868
 31
0.0
  0
ELLIPSE
  5
248
330
1F
100
AcDbEntity
  8
0
 62
   250
420
  2500134
370
    -3
100
AcDbEllipse
 10
779.5569235381139
 20
219.1812599029876
 30
0.0
 11
0.1636634176771951
 21
-0.1889822365048439
 31
0.0
210
0.0
220
0.0
230
1.0
 40
0.7500000000000017
 41
3.855317032534556
 42
5.414348382040462
  0
ELLIPSE
  5
249
330
1F
100
AcDbEntity
  8
0
 62
   250
420
  2500134
370
    -3
100
AcDbEllipse
 10
779.5482632840835
 20
195.8444262154284
 30
0.0
 11
0.392792202424816
 21
-0.4535573676111065
 31
0.0
210
0.0
220
0.0
230
1.0
 40
0.7500000000000001
 41
5.426113359329455
 42
6.996909686124486
  0
ELLIPSE
  5
24A
330
1F
100
AcDbEntity
  8
0
 62
   250
420
  2500134
370
    -3
100
AcDbEllipse
 10
780.5874937686259
 20
195.5444262154283
 30
0.0
 11
0.392792202424816
 21
-0.4535573676111065
 31
0.0
210
0.0
220
0.0
230
1.0
 40
0.7500000000000001
 41
3.855317032534928
 42
5.426113359329824
  0
LINE
  5
24B
330
1F
100
AcDbEntity
  8
0
 62
   250
420
  2500134
370
    -3
100
AcDbLine
 10
777.8162167078735
 20
228.6471725551
 30
0.0
 11
903.0266420292807
 21
336.0789828996305
 31
0.0
  0
LINE
  5
24C
330
1F
100
AcDbEntity
  8
0
 62
   250
420
  2500134
370
    -3
100
AcDbLine
 10
782.319540344837
 20
227.3471749980746
 30
0.0
 11
777.8162167078733
 21
228.6471725550992
 31
0.0
  0
LINE
  5
24D
330
1F
100
AcDbEntity
  8
0
 62
   250
420
  2500134
370
    -3
100
AcDbLine
 10
777.2965972342438
 20
219.7905095772282
 30
0.0
 11
777.2965972342438
 21
228.2775585343159
 31
0.0
  0
LINE
  5
24E
330
1F
100
AcDbEntity
  8
0
 62
   250
420
  2500134
370
    -3
100
AcDbLine
 10
777.8162167078733
 20
219.1208931134701
 30
0.0
 11
779.5049620138943
 21
218.633394334958
 31
0.0
  0
ELLIPSE
  5
24F
330
1F
100
AcDbEntity
  8
0
 62
   250
420
  2500134
370
    -3
100
AcDbEllipse
 10
779.5049620138946
 20
218.4168879840129
 30
0.0
 11
-0.1636634176769944
 21
0.1889822365046136
 31
0.0
210
0.0
220
0.0
230
-1.0
 40
0.7500000000000002
 41
0.8570719478492432
 42
2.42786827464636
  0
LINE
  5
250
330
1F
100
AcDbEntity
  8
0
 62
   250
420
  2500134
370
    -3
100
AcDbLine
 10
779.7214683648401
 20
218.3543879840125
 30
0.0
 11
779.7214683648401
 21
195.8377274856171
 31
0.0
  0
LINE
  5
251
330
1F
100
AcDbEntity
  8
0
 62
   250
420
  2500134
370
    -3
100
AcDbLine
 10
779.504962013895
 20
195.6837211346716
 30
0.0
 11
779.7214687764684
 21
195.8712214911514
 31
0.0
  0
ELLIPSE
  5
252
330
1F
100
AcDbEntity
  8
0
 62
   250
420
  2500134
370
    -3
100
AcDbEllipse
 10
779.5049620138943
 20
195.9002274856174
 30
0.0
 11
-0.1636634176769944
 21
0.1889822365046135
 31
0.0
210
0.0
220
0.0
230
-1.0
 40
0.7500000000000002
 41
2.427868274645916
 42
3.998664601440458
  0
LINE
  5
253
330
1F
100
AcDbEntity
  8
0
 62
   250
420
  2500134
370
    -3
100
AcDbLine
 10
769.7188749511306
 20
198.5087211346715
 30
0.0
 11
779.7214873820161
 21
207.1712376040285
 31
0.0
  0
LINE
  5
254
330
1F
100
AcDbEntity
  8
0
 62
   250
420
  2500134
370
    -3
100
AcDbLine
 10
779.5049620138943
 20
195.6837211346705
 30
0.0
 11
769.7188749511301
 21
198.5087211346706
 31
0.0
  0
LINE
  5
255
330
1F
100
AcDbEntity
  8
0
 62
   250
420
  2500134
370
    -3
100
AcDbLine
 10
769.7188749511297
 20
198.5087211346707
 30
0.0
 11
769.7188749511297
 21
197.8159008116431
 31
0.0
  0
LINE
  5
256
330
1F
100
AcDbEntity
  8
0
 62
   250
420
  2500134
370
    -3
100
AcDbLine
 10
782.8391598184647
 20
226.6775585343165
 30
0.0
 11
906.3189006285307
 21
334.6178115016643
 31
0.0
  0
LINE
  5
257
330
1F
100
AcDbEntity
  8
0
 62
   250
420
  2500134
370
    -3
100
AcDbLine
 10
782.839159818464
 20
226.677558534316
 30
0.0
 11
782.839159818464
 21
218.1905095772285
 31
0.0
  0
LINE
  5
258
330
1F
100
AcDbEntity
  8
0
 62
   250
420
  2500134
370
    -3
100
AcDbLine
 10
779.3404171871756
 20
227.6442572641267
 30
0.0
 11
779.3404171871756
 21
219.2437599029844
 31
0.0
  0
LINE
  5
259
330
1F
100
AcDbEntity
  8
0
 62
   250
420
  2500134
370
    -3
100
AcDbLine
 10
779.5569235381228
 20
227.7982636150732
 30
0.0
 11
780.5788335145871
 21
227.5032636150735
 31
0.0
  0
LINE
  5
25A
330
1F
100
AcDbEntity
  8
0
 62
   250
420
  2500134
370
    -3
100
AcDbLine
 10
790.4168821015783
 20
191.840900811643
 30
0.0
 11
790.4168821015783
 21
192.5337211346707
 31
0.0
  0
LINE
  5
25B
330
1F
100
AcDbEntity
  8
0
 62
   250
420
  2500134
370
    -3
100
AcDbLine
 10
790.4168821015785
 20
192.5337211346703
 30
0.0
 11
780.6307950388145
 21
195.3587211346703
 31
0.0
  0
ELLIPSE
  5
25C
330
1F
100
AcDbEntity
  8
0
 62
   250
420
  2500134
370
    -3
100
AcDbEllipse
 10
780.6307950388151
 20
195.5752274856169
 30
0.0
 11
-0.1636634176769944
 21
0.1889822365046135
 31
0.0
210
0.0
220
0.0
230
-1.0
 40
0.7500000000000002
 41
3.998664601442589
 42
5.569460928237485
  0
LINE
  5
25D
330
1F
100
AcDbEntity
  8
0
 62
   250
420
  2500134
370
    -3
100
AcDbLine
 10
780.4142886878677
 20
195.6377274856174
 30
0.0
 11
780.4142886878677
 21
218.1543879840131
 31
0.0
  0
ELLIPSE
  5
25E
330
1F
100
AcDbEntity
  8
0
 62
   250
420
  2500134
370
    -3
100
AcDbEllipse
 10
780.6307950388143
 20
218.0918879840123
 30
0.0
 11
-0.1636634176769944
 21
0.1889822365046136
 31
0.0
210
0.0
220
0.0
230
-1.0
 40
0.7500000000000002
 41
5.569460928238374
 42
7.140257255031011
  0
LINE
  5
25F
330
1F
100
AcDbEntity
  8
0
 62
   250
420
  2500134
370
    -3
100
AcDbLine
 10
780.6307950388148
 20
218.308394334958
 30
0.0
 11
782.3195403448373
 21
217.8208955564456
 31
0.0
  0
LINE
  5
260
330
1F
100
AcDbEntity
  8
0
 62
   250
420
  2500134
370
    -3
100
AcDbLine
 10
780.5874937686259
 20
195.0248109731563
 30
0.0
 11
779.5482632840833
 21
195.3248109731567
 31
0.0
  0
LINE
  5
261
330
1F
100
AcDbEntity
  8
0
 62
   250
420
  2500134
370
    -3
100
AcDbLine
 10
780.4142886878691
 20
218.1543879840134
 30
0.0
 11
780.5990842387671
 21
218.3144256255975
 31
0.0
  0
LINE
  5
262
330
1F
100
AcDbEntity
  8
0
 62
   250
420
  2500134
370
    -3
100
AcDbLine
 10
780.4142886878689
 20
195.637727485618
 30
0.0
 11
904.7596003415764
 21
303.3239262192218
 31
0.0
  0
LINE
  5
263
330
1F
100
AcDbEntity
  8
0
 62
   250
420
  2500134
370
    -3
100
AcDbLine
 10
780.6307950388151
 20
195.3587211346716
 30
0.0
 11
904.976611150282
 21
303.0453567415104
 31
0.0
  0
LINE
  5
264
330
1F
100
AcDbEntity
  8
0
 62
   250
420
  2500134
370
    -3
100
AcDbLine
 10
790.4168821015792
 20
192.5337211346715
 30
0.0
 11
914.7854997037703
 21
300.2401034117215
 31
0.0
  0
LINE
  5
265
330
1F
100
AcDbEntity
  8
0
 62
   250
420
  2500134
370
    -3
100
AcDbLine
 10
782.7135443245552
 20
217.8880041834317
 30
0.0
 11
906.1929591227789
 21
325.8279721663726
 31
0.0
  0
LINE
  5
266
330
1F
100
AcDbEntity
  8
0
 62
   250
420
  2500134
370
    -3
100
AcDbLine
 10
902.6341369489003
 20
336.0131797370659
 30
0.0
 11
777.4246417463
 21
228.5821674438716
 31
0.0
  0
LINE
  5
267
330
1F
100
AcDbEntity
  8
0
 62
   250
420
  2500134
370
    -3
100
AcDbLine
 10
780.7953770060126
 20
219.1214468121187
 30
0.0
 11
780.1947076710121
 21
218.601251908734
 31
0.0
  0
LINE
  5
268
330
1F
100
AcDbEntity
  8
0
 62
   250
420
  2500134
370
    -3
100
AcDbLine
 10
779.9410438686527
 20
195.3908587864592
 30
0.0
 11
780.0959924486781
 21
195.5250481930414
 31
0.0
  0
ELLIPSE
  5
269
330
1F
100
AcDbEntity
  8
0
 62
   250
420
  2500134
370
    -3
100
AcDbEllipse
 10
907.4524125572527
 20
337.1624997841286
 30
0.0
 11
0.1527364034207894
 21
-0.1975961987759187
 31
0.0
210
0.0
220
0.0
230
-1.0
 40
0.750380157326959
 41
3.941820321555308
 42
5.512966212288253
  0
ELLIPSE
  5
26A
330
1F
100
AcDbEntity
  8
0
 62
   250
420
  2500134
370
    -3
100
AcDbEllipse
 10
906.4328836214124
 20
337.4595618257964
 30
0.0
 11
-0.1527364034226735
 21
0.1975961987746037
 31
0.0
210
0.0
220
0.0
230
-1.0
 40
0.7503801573260752
 41
5.51296621229744
 42
7.083412975152798
  0
LINE
  5
26B
330
1F
100
AcDbEntity
  8
0
 62
   250
420
  2500134
370
    -3
100
AcDbLine
 10
906.2168817282252
 20
337.5224986990312
 30
0.0
 11
906.4012467080485
 21
337.6821634551263
 31
0.0
  0
ELLIPSE
  5
26C
330
1F
100
AcDbEntity
  8
0
 62
   250
420
  2500134
370
    -3
100
AcDbEllipse
 10
908.3034641765681
 20
336.9578285616195
 30
0.0
 11
0.390734639564522
 21
-0.4553457629923889
 31
0.0
210
0.0
220
0.0
230
1.0
 40
0.7482430969856876
 41
0.7171119543988969
 42
2.287908281196962
  0
ELLIPSE
  5
26D
330
1F
100
AcDbEntity
  8
0
 62
   250
420
  2500134
370
    -3
100
AcDbEllipse
 10
1031.777715793491
 20
444.8932831313302
 30
0.0
 11
0.3928002968147881
 21
-0.4535540510590982
 31
0.0
210
0.0
220
0.0
230
1.0
 40
0.7499991274258476
 41
0.713709986688879
 42
2.284506313483094
  0
LINE
  5
26E
330
1F
100
AcDbEntity
  8
0
 62
   250
420
  2500134
370
    -3
100
AcDbLine
 10
1031.777715793492
 20
445.4128983736017
 30
0.0
 11
908.3034641765681
 21
337.4774438038901
 31
0.0
  0
ELLIPSE
  5
26F
330
1F
100
AcDbEntity
  8
0
 62
   250
420
  2500134
370
    -3
100
AcDbEllipse
 10
1022.106235610257
 20
427.9518755021369
 30
0.0
 11
-0.3948861532148816
 21
0.4517354601967069
 31
0.0
210
0.0
220
0.0
230
-1.0
 40
0.7517413713177531
 41
2.431341819047341
 42
3.141522682358302
  0
LINE
  5
270
330
1F
100
AcDbEntity
  8
0
 62
   250
420
  2500134
370
    -3
100
AcDbLine
 10
1022.627057309969
 20
427.8029252108408
 30
0.0
 11
915.0809521509323
 21
333.7911163070994
 31
0.0
  0
ELLIPSE
  5
271
330
1F
100
AcDbEntity
  8
0
 62
   250
420
  2500134
370
    -3
100
AcDbEllipse
 10
905.5818763274228
 20
337.7508226735311
 30
0.0
 11
0.3907024290455943
 21
-0.4553587727692598
 31
0.0
210
0.0
220
0.0
230
1.0
 40
0.7482464139025506
 41
2.287965465625987
 42
3.858761792418305
  0
ELLIPSE
  5
272
330
1F
100
AcDbEntity
  8
0
 62
   250
420
  2500134
370
    -3
100
AcDbEllipse
 10
1030.788041259217
 20
445.1789775607168
 30
0.0
 11
-0.3928002968147722
 21
0.4535540510590972
 31
0.0
210
0.0
220
0.0
230
1.0
 40
0.7499991274258898
 41
5.426098967073576
 42
6.279813499726806
  0
LINE
  5
273
330
1F
100
AcDbEntity
  8
0
 62
   250
420
  2500134
370
    -3
100
AcDbLine
 10
905.0634760052387
 20
337.9018699392791
 30
0.0
 11
905.0634760052387
 21
336.7099100528988
 31
0.0
  0
LINE
  5
274
330
1F
100
AcDbEntity
  8
0
 62
   250
420
  2500134
370
    -3
100
AcDbLine
 10
908.8218813849522
 20
335.6148164893524
 30
0.0
 11
908.8218813849522
 21
336.8067763757084
 31
0.0
  0
LINE
  5
275
330
1F
100
AcDbEntity
  8
0
 62
   250
420
  2500134
370
    -3
100
AcDbLine
 10
908.303464176568
 20
337.4774438038901
 30
0.0
 11
905.5818763274231
 21
338.2704379158022
 31
0.0
  0
LINE
  5
276
330
1F
100
AcDbEntity
  8
0
 62
   250
420
  2500134
370
    -3
100
AcDbLine
 10
907.6684144504394
 20
337.0995629108937
 30
0.0
 11
907.6684144504394
 21
335.9509042947199
 31
0.0
  0
LINE
  5
277
330
1F
100
AcDbEntity
  8
0
 62
   250
420
  2500134
370
    -3
100
AcDbLine
 10
906.216881728225
 20
336.3738400828479
 30
0.0
 11
906.216881728225
 21
337.522498699031
 31
0.0
  0
LINE
  5
278
330
1F
100
AcDbEntity
  8
0
 62
   250
420
  2500134
370
    -3
100
AcDbLine
 10
906.4328836214122
 20
337.6760681767429
 30
0.0
 11
907.4524125572524
 21
337.3790061350751
 31
0.0
  0
LINE
  5
279
330
1F
100
AcDbEntity
  8
0
 62
   250
420
  2500134
370
    -3
100
AcDbLine
 10
943.8482508966642
 20
325.4091842486342
 30
0.0
 11
1041.631882101579
 21
410.0922929463792
 31
0.0
  0
LINE
  5
27A
330
1F
100
AcDbEntity
  8
0
 62
   250
420
  2500134
370
    -3
100
AcDbLine
 10
944.4468541588477
 20
325.2347695574455
 30
0.0
 11
1041.631882101579
 21
409.3994726233514
 31
0.0
  0
LINE
  5
27B
330
1F
100
AcDbEntity
  8
0
 62
   250
420
  2500134
370
    -3
100
AcDbLine
 10
1041.631882101578
 20
409.3994726233503
 30
0.0
 11
1041.631882101578
 21
410.0922929463778
 31
0.0
  0
LINE
  5
27C
330
1F
100
AcDbEntity
  8
0
 62
   250
420
  2500134
370
    -3
100
AcDbLine
 10
905.5818763274231
 20
338.2704379158021
 30
0.0
 11
1030.788041259218
 21
445.6985928029881
 31
0.0
  0
LINE
  5
27D
330
1F
100
AcDbEntity
  8
0
 62
   250
420
  2500134
370
    -3
100
AcDbLine
 10
1030.788041259217
 20
445.6985928029877
 30
0.0
 11
1031.777715793491
 21
445.4128983736011
 31
0.0
  0
LINE
  5
27E
330
1F
100
AcDbEntity
  8
0
 62
   250
420
  2500134
370
    -3
100
AcDbLine
 10
1032.297335267119
 20
444.7432819098426
 30
0.0
 11
1032.297335267119
 21
436.2530788680613
 31
0.0
  0
SPLINE
  5
27F
330
1F
100
AcDbEntity
  8
0
 62
   250
420
  2500134
370
    -3
100
AcDbSpline
210
0.0
220
0.0
230
1.0
 70
     8
 71
     3
 72
    12
 73
     8
 74
     0
 42
0.000000001
 43
0.00000001
 40
0.0004620633766484
 40
0.0004620633766484
 40
0.0004620633766484
 40
0.0004620633766484
 40
0.0004687813826721
 40
0.0004687813826721
 40
0.0006791155446335
 40
0.0006791155446335
 40
0.000889449958323
 40
0.000889449958323
 40
0.000889449958323
 40
0.000889449958323
 10
1032.171595849898
 20
435.9504649633081
 30
0.0
 10
1032.172860076941
 20
435.9515692642407
 30
0.0
 10
1032.174116408422
 20
435.9526832963364
 30
0.0
 10
1032.214449857504
 20
435.9889898172279
 30
0.0
 10
1032.245089763183
 20
436.033103689301
 30
0.0
 10
1032.286692563155
 20
436.1351818428452
 30
0.0
 10
1032.297335267119
 20
436.1923605715782
 30
0.0
 10
1032.297335267119
 20
436.2530788680612
 30
0.0
  0
LINE
  5
280
330
1F
100
AcDbEntity
  8
0
 62
   250
420
  2500134
370
    -3
100
AcDbLine
 10
1031.629288687867
 20
413.1962992973243
 30
0.0
 11
1031.629288687867
 21
435.4767438414713
 31
0.0
  0
ELLIPSE
  5
281
330
1F
100
AcDbEntity
  8
0
 62
   250
420
  2500134
370
    -3
100
AcDbEllipse
 10
1031.845795038814
 20
413.1337992973241
 30
0.0
 11
-0.1636634176769944
 21
0.1889822365046135
 31
0.0
210
0.0
220
0.0
230
-1.0
 40
0.7500000000000002
 41
3.998664601439924
 42
5.569460928234821
  0
LINE
  5
282
330
1F
100
AcDbEntity
  8
0
 62
   250
420
  2500134
370
    -3
100
AcDbLine
 10
1041.631882101578
 20
410.0922929463779
 30
0.0
 11
1031.845795038814
 21
412.917292946378
 31
0.0
  0
SPLINE
  5
283
330
1F
100
AcDbEntity
  8
0
 62
   250
420
  2500134
370
    -3
100
AcDbSpline
210
0.0
220
0.0
230
1.0
 70
     8
 71
     3
 72
    17
 73
    13
 74
     0
 42
0.000000001
 43
0.00000001
 40
0.0006024263265185
 40
0.0006024263265185
 40
0.0006024263265185
 40
0.0006024263265185
 40
0.0067960649272575
 40
0.0067960649272575
 40
0.0067960649272575
 40
0.013386188493083
 40
0.013386188493083
 40
0.013386188493083
 40
0.0175050157217239
 40
0.0175050157217239
 40
0.0175050157217239
 40
0.0200792827396245
 40
0.0200792827396245
 40
0.0200792827396245
 40
0.0200792827396245
 10
1032.297335267119
 20
436.2530788680618
 30
0.0
 10
1031.272286144936
 20
435.3576986501684
 30
0.0
 10
1030.247236994194
 20
434.4622109658962
 30
0.0
 10
1029.222187825926
 20
433.5666165640805
 30
0.0
 10
1028.131520269196
 20
432.6136908037492
 30
0.0
 10
1027.040852692619
 20
431.6606442284323
 30
0.0
 10
1025.950185109389
 20
430.707477387488
 30
0.0
 10
1025.268517869869
 20
430.1117481118977
 30
0.0
 10
1024.58685062775
 20
429.5159718503985
 30
0.0
 10
1023.905183386254
 20
428.9201486664394
 30
0.0
 10
1023.479141360318
 20
428.547759176465
 30
0.0
 10
1023.053099334626
 20
428.1753513563327
 30
0.0
 10
1022.627057309968
 20
427.8029252108399
 30
0.0
  0
LINE
  5
284
330
1F
100
AcDbEntity
  8
0
 62
   250
420
  2500134
370
    -3
100
AcDbLine
 10
934.0849653246242
 20
328.2539309188456
 30
0.0
 11
1031.845795038815
 21
412.9172929463794
 31
0.0
  0
LINE
  5
285
330
1F
100
AcDbEntity
  8
0
 62
   250
420
  2500134
370
    -3
100
AcDbLine
 10
933.6818999120052
 20
328.371372383077
 30
0.0
 11
1031.629288687869
 21
413.1962992973257
 31
0.0
  0
LINE
  5
286
330
1F
100
AcDbEntity
  8
0
 62
   250
420
  2500134
370
    -3
100
AcDbLine
 10
908.8218813849522
 20
336.8067763757084
 30
0.0
 11
1032.29733526712
 21
444.7432819098433
 31
0.0
  0
LINE
  5
287
330
1F
100
AcDbEntity
  8
0
 62
   250
420
  2500134
370
    -3
100
AcDbLine
 10
915.2461737591819
 20
333.742847196707
 30
0.0
 11
1022.501107797336
 21
427.5001278333924
 31
0.0
  0
LINE
  5
288
330
1F
100
AcDbEntity
  8
0
 62
   250
420
  2500134
370
    -3
100
AcDbLine
 10
1030.396438631016
 20
445.6335639535126
 30
0.0
 11
905.1911548244702
 21
338.2061650806953
 31
0.0
  0
SPLINE
  5
289
330
1F
100
AcDbEntity
  8
0
 62
   250
420
  2500134
370
    -3
100
AcDbSpline
210
0.0
220
0.0
230
1.0
 70
     8
 71
     3
 72
    10
 73
     6
 74
     0
 42
0.000000001
 43
0.00000001
 40
0.0000000369877971
 40
0.0000000369877971
 40
0.0000000369877971
 40
0.0000000369877971
 40
0.0097326574959463
 40
0.0097326574959463
 40
0.0194765611140912
 40
0.0194765611140912
 40
0.0194765611140912
 40
0.0194765611140912
 10
1022.501140127769
 20
427.5001560951558
 30
0.0
 10
1024.111876287157
 20
428.9081868143779
 30
0.0
 10
1025.723256016943
 20
430.3165181487955
 30
0.0
 10
1028.946589036613
 20
433.1331564037364
 30
0.0
 10
1030.559854694922
 20
434.5426094979929
 30
0.0
 10
1032.17245402771
 20
435.9512145814217
 30
0.0
  0
LINE
  5
28A
330
1F
100
AcDbEntity
  8
0
 62
     7
370
     9
100
AcDbLine
 10
15.0
 20
1035.0
 30
0.0
 11
1470.0
 21
1035.0
 31
0.0
  0
LINE
  5
28B
330
1F
100
AcDbEntity
  8
0
 62
     7
370
     9
100
AcDbLine
 10
1470.0
 20
1035.0
 30
0.0
 11
1470.0
 21
15.00000000000001
 31
0.0
  0
LINE
  5
28C
330
1F
100
AcDbEntity
  8
0
 62
     7
370
     9
100
AcDbLine
 10
1470.0
 20
15.0
 30
0.0
 11
15.00000000000001
 21
15.00000000000001
 31
0.0
  0
LINE
  5
28D
330
1F
100
AcDbEntity
  8
0
 62
     7
370
     9
100
AcDbLine
 10
15.0
 20
15.00000000000001
 30
0.0
 11
15.0
 21
1035.0
 31
0.0
  0
LINE
  5
28E
330
1F
100
AcDbEntity
  8
0
 62
     7
370
     9
100
AcDbLine
 10
512.2265694828774
 20
435.7570273504188
 30
0.0
 11
544.9349675535655
 21
426.3841758479098
 31
0.0
  0
LINE
  5
28F
330
1F
100
AcDbEntity
  8
0
 62
     7
370
     9
100
AcDbLine
 10
904.9030078545088
 20
323.2324721142607
 30
0.0
 11
947.5735413882194
 21
311.0048914947528
 31
0.0
  0
LINE
  5
290
330
1F
100
AcDbEntity
  8
0
 62
     7
370
     9
100
AcDbLine
 10
557.8436641515306
 20
422.6850862122088
 30
0.0
 11
588.5976641300933
 21
413.8722830206776
 31
0.0
  0
LINE
  5
291
330
1F
100
AcDbEntity
  8
0
 62
     7
370
     9
100
AcDbLine
 10
647.4523095791398
 20
397.0070164663649
 30
0.0
 11
680.6974959382729
 21
387.4803440122763
 31
0.0
  0
LINE
  5
292
330
1F
100
AcDbEntity
  8
0
 62
     7
370
     9
100
AcDbLine
 10
704.07642035023
 20
380.7809273570159
 30
0.0
 11
891.8969025132903
 21
326.9594749997514
 31
0.0
  0
LINE
  5
293
330
1F
100
AcDbEntity
  8
0
 62
     7
370
     9
100
AcDbLine
 10
433.274892542838
 20
312.8080589681214
 30
0.0
 11
557.7887270176044
 21
422.1614422743439
 31
0.0
  0
LINE
  5
294
330
1F
100
AcDbEntity
  8
0
 62
     7
370
     9
100
AcDbLine
 10
780.562776925686
 20
213.6889233518834
 30
0.0
 11
904.9030078545088
 21
323.2160053081966
 31
0.0
  0
LINE
  5
295
330
1F
100
AcDbEntity
  8
0
 62
     7
370
     9
100
AcDbLine
 10
915.8047462829498
 20
332.9424132517851
 30
0.0
 11
1031.728620474344
 21
434.0983666329792
 31
0.0
  0
LINE
  5
296
330
1F
100
AcDbEntity
  8
0
 62
     7
370
     9
100
AcDbLine
 10
638.8837853474147
 20
492.0571360432833
 30
0.0
 11
670.1882182445331
 21
519.5094623903726
 31
0.0
  0
DIMENSION
  5
297
102
{ACAD_XDICTIONARY
360
29A
102
}
330
1F
100
AcDbEntity
  8
0
 62
     7
370
     9
100
AcDbDimension
  2
*D1
 10
527.9106981900371
 20
336.2802220976398
 30
0.0000000000002202
 11
578.6399930486326
 21
326.8690666768327
 31
0.0000000000002202
 70
   160
  1
{\fArial|b0|i0;50 Max.}
 71
     5
 42
46.59194416037495
 73
     0
 74
     0
 75
     0
  3
Arial
100
AcDbAlignedDimension
 13
522.8979596539157
 23
393.7822509337365
 33
0.0000000000002202
 14
603.5749785491452
 24
402.4224208824356
 34
0.0
 50
-48.84155447449221
100
AcDbRotatedDimension
1001
ACAD
1000
DSTYLE
1002
{
1070
     4
1000

1070
   273
1070
     2
1070
   277
1070
     2
1070
   284
1070
     8
1070
   285
1070
     0
1070
    78
1070
     8
1070
   171
1070
     3
1070
   271
1070
     2
1070
   274
1070
     3
1070
   272
1070
     2
1070
    74
1070
     1
1070
   174
1070
     1
1070
    77
1070
     0
1070
   170
1070
     0
1070
    41
1040
12.5
1070
   344
1005
0
1070
   343
1005
0
1070
   173
1070
     1
1070
   140
1040
12.5
1070
   178
1070
     7
1070
   177
1070
     7
1070
   176
1070
     7
1070
   179
1070
     1
1070
   143
1040
0.0393700787401575
1070
   286
1070
     8
1070
   278
1070
    46
1070
   144
1040
0.9999999999999994
1070
     3
1000
mm
1070
    73
1070
     1
1002
}
  0
DIMENSION
  5
2AA
102
{ACAD_XDICTIONARY
360
2AB
102
}
330
1F
100
AcDbEntity
  8
0
 62
     7
370
     9
100
AcDbDimension
  2
*D2
 10
692.27860959636
 20
372.5115961785594
 30
0.000000000000222
 11
853.7003368695849
 21
409.7189993339676
 31
0.0000000000002363
 70
   162
  1
{\fArial|b0|i0;45\U+00B0}
 71
     5
 42
0.8981442566258977
 73
     0
 74
     0
 75
     0
  3
Arial
100
AcDb2LineAngularDimension
 13
947.1546794411348
 23
322.8122214440756
 33
0.0000000000002411
 14
510.815386593174
 24
447.6013091684038
 34
0.000000000000222
 15
976.0986628868169
 25
574.9571667921565
 35
0.0000000000002187
 16
848.1314971903353
 26
433.0538515702766
 36
0.0000000000002363
1001
ACAD
1000
DSTYLE
1002
{
1070
     4
1000

1070
   273
1070
     2
1070
   277
1070
     2
1070
   284
1070
     8
1070
   285
1070
     0
1070
    78
1070
     8
1070
   171
1070
     3
1070
   271
1070
     2
1070
   274
1070
     3
1070
   272
1070
     2
1070
    74
1070
     1
1070
   174
1070
     1
1070
    77
1070
     0
1070
   170
1070
     0
1070
    41
1040
12.5
1070
   344
1005
0
1070
   343
1005
0
1070
   173
1070
     1
1070
   140
1040
12.5
1070
   178
1070
     7
1070
   177
1070
     7
1070
   176
1070
     7
1070
   179
1070
     1
1070
   143
1040
0.0078740157480315
1070
   286
1070
     8
1070
   278
1070
    46
1070
   144
1040
0.2
1070
     3
1000

1070
    73
1070
     1
1002
}
  0
MTEXT
  5
2BA
330
1F
100
AcDbEntity
  8
0
 62
     7
100
AcDbMText
 10
671.0675427069326
 20
-178.5602879819807
 30
0.0
 40
24.5
 41
0.0
 46
0.0
 71
     2
 72
     1
  1
{\fSpaceClaim ASME CB|b0|i0;SCALE }{\fSpaceClaim ASME CB|b0|i0;1:5}
  7
SpaceClaim ASME CB
 73
     1
 44
1.0
  0
MTEXT
  5
2BB
330
1F
100
AcDbEntity
  8
0
 62
     7
100
AcDbMText
 10
393.7820084223527
 20
688.9914202740846
 30
0.0
 40
12.5
 41
0.0
 46
0.0
 71
     1
 72
     1
  1
{\fArial|b0|i0;64x0.5 BMT or}\P{\fArial|b0|i0;92x0.75 BMT Stud}
  7
Arial
 73
     1
 44
1.0
  0
LEADER
  5
2BC
330
1F
100
AcDbEntity
  8
0
 62
     7
370
     9
100
AcDbLeader
  3
ISO-25
 76
     2
 10
576.1197914867788
 20
578.088917261648
 30
0.0
 10
393.7820084223527
 20
673.1319386915471
 30
0.0
1001
ACAD
1000
DSTYLE
1002
{
1070
   176
1070
     7
1070
   341
1005
0
1070
    41
1040
12.5
1070
   147
1040
0.0
1002
}
  0
MTEXT
  5
2BD
330
1F
100
AcDbEntity
  8
0
 62
     7
100
AcDbMText
 10
627.1671907902415
 20
859.6147091541576
 30
0.0
 40
12.5
 41
0.0
 46
0.0
 71
     1
 72
     1
  1
{\fArial|b0|i0;64x0.5 BMT or}\P{\fArial|b0|i0;92x0.75 BMT Stud}
  7
Arial
 73
     1
 44
1.0
  0
LEADER
  5
2BE
330
1F
100
AcDbEntity
  8
0
 62
     7
370
     9
100
AcDbLeader
  3
ISO-25
 76
     2
 10
756.032026913412
 20
741.4981310945357
 30
0.0
 10
627.1671907902415
 20
843.75522757162
 30
0.0
1001
ACAD
1000
DSTYLE
1002
{
1070
   176
1070
     7
1070
   341
1005
0
1070
    41
1040
12.5
1070
   147
1040
0.0
1002
}
  0
MTEXT
  5
2BF
330
1F
100
AcDbEntity
  8
0
 62
     7
100
AcDbMText
 10
910.81258152346
 20
722.8399248447046
 30
0.0
 40
12.5
 41
0.0
 46
0.0
 71
     1
 72
     1
  1
{\fArial|b0|i0;64x0.5 BMT or}\P{\fArial|b0|i0;92x0.75 BMT Stud}
  7
Arial
 73
     1
 44
1.0
  0
LEADER
  5
2C0
330
1F
100
AcDbEntity
  8
0
 62
     7
370
     9
100
AcDbLeader
  3
ISO-25
 76
     2
 10
900.8634470225586
 20
565.1353058128393
 30
0.0
 10
910.81258152346
 20
706.9804432621671
 30
0.0
1001
ACAD
1000
DSTYLE
1002
{
1070
   176
1070
     7
1070
   341
1005
0
1070
    41
1040
12.5
1070
   147
1040
0.0
1002
}
  0
MTEXT
  5
2C1
330
1F
100
AcDbEntity
  8
0
 62
     7
100
AcDbMText
 10
372.4434081893052
 20
557.3462578122809
 30
0.0
 40
12.5
 41
0.0
 46
0.0
 71
     1
 72
     1
  1
{\fArial|b0|i0;Fix Studs to GRIDLOK Bracket }\P{\fArial|b0|i0;with 4x 10g Wafer Tek Screws}
  7
Arial
 73
     1
 44
1.0
  0
LEADER
  5
2C2
330
1F
100
AcDbEntity
  8
0
 62
     7
370
     9
100
AcDbLeader
  3
ISO-25
 76
     2
 10
614.5609119846889
 20
461.5286898210476
 30
0.0
 10
372.4434081893052
 20
541.4867762297433
 30
0.0
1001
ACAD
1000
DSTYLE
1002
{
1070
   176
1070
     7
1070
   341
1005
0
1070
    41
1040
12.5
1070
   147
1040
0.0
1002
}
  0
MTEXT
  5
2C3
330
1F
100
AcDbEntity
  8
0
 62
     7
100
AcDbMText
 10
613.4403498387728
 20
241.9873709063556
 30
0.0
 40
12.5
 41
0.0
 46
0.0
 71
     1
 72
     1
  1
{\fArial|b0|i0;Fix GRIDLOK to Ceiling Tee}\P{\fArial|b0|i0;with 2x 10g Wafer Tek Screw}\P{\fArial|b0|i0;Both Sides}
  7
Arial
 73
     1
 44
1.0
  0
LEADER
  5
2C4
330
1F
100
AcDbEntity
  8
0
 62
     7
370
     9
100
AcDbLeader
  3
ISO-25
 76
     2
 10
638.9543191398654
 20
387.1401753258509
 30
0.0
 10
613.4403498387728
 20
216.6249902787976
 30
0.0
1001
ACAD
1000
DSTYLE
1002
{
1070
   176
1070
     7
1070
   341
1005
0
1070
    41
1040
12.5
1070
   147
1040
0.0
1002
}
  0
MTEXT
  5
2C5
330
1F
100
AcDbEntity
  8
0
 62
     7
100
AcDbMText
 10
1060.143180546539
 20
256.3055476806618
 30
0.0
 40
12.5
 41
0.0
 46
0.0
 71
     1
 72
     1
  1
{\fArial|b0|i0;Main Tee}
  7
Arial
 73
     1
 44
1.0
  0
LEADER
  5
2C6
330
1F
100
AcDbEntity
  8
0
 62
     7
370
     9
100
AcDbLeader
  3
ISO-25
 76
     2
 10
947.5403763134952
 20
306.4290649972954
 30
0.0
 10
1060.143180546539
 20
249.9489651431448
 30
0.0
1001
ACAD
1000
DSTYLE
1002
{
1070
   176
1070
     7
1070
   341
1005
0
1070
    41
1040
12.5
1070
   147
1040
0.0
1002
}
  0
MTEXT
  5
2C7
330
1F
100
AcDbEntity
  8
0
 62
     7
100
AcDbMText
 10
1112.174927304302
 20
369.5279532117472
 30
0.0
 40
12.5
 41
0.0
 46
0.0
 71
     1
 72
     1
  1
{\fArial|b0|i0;Cross Tee}
  7
Arial
 73
     1
 44
1.0
  0
LEADER
  5
2C8
330
1F
100
AcDbEntity
  8
0
 62
     7
370
     9
100
AcDbLeader
  3
ISO-25
 76
     2
 10
1018.620073783457
 20
390.163482355867
 30
0.0
 10
1112.174927304302
 20
363.1713706742302
 30
0.0
1001
ACAD
1000
DSTYLE
1002
{
1070
   176
1070
     7
1070
   341
1005
0
1070
    41
1040
12.5
1070
   147
1040
0.0
1002
}
  0
MTEXT
  5
2C9
330
1F
100
AcDbEntity
  8
0
 62
     7
100
AcDbMText
 10
1134.575097868389
 20
763.2232523769995
 30
0.0
 40
12.5
 41
0.0
 46
0.0
 71
     1
 72
     1
  1
{\fArial|b0|i0;Fix to Structure in Accordance}\P{\fArial|b0|i0;with GRIDLOK Specification}
  7
Arial
 73
     1
 44
1.0
  0
LEADER
  5
2CA
330
1F
100
AcDbEntity
  8
0
 62
     7
370
     9
100
AcDbLeader
  3
ISO-25
 76
     2
 10
1031.822145896061
 20
625.9016238373943
 30
0.0
 10
1134.575097868389
 20
747.3637707944621
 30
0.0
1001
ACAD
1000
DSTYLE
1002
{
1070
   176
1070
     7
1070
   341
1005
0
1070
    41
1040
12.5
1070
   147
1040
0.0
1002
}
  0
ENDSEC
  0
SECTION
  2
OBJECTS
  0
DICTIONARY
  5
C
330
0
100
AcDbDictionary
281
     1
  3
ACAD_DETAILVIEWSTYLE
350
2FF
  3
ACAD_GROUP
350
D
  3
ACAD_LAYOUT
350
1A
  3
ACAD_MATERIAL
350
43
  3
ACAD_MLEADERSTYLE
350
2FE
  3
ACAD_MLINESTYLE
350
17
  3
ACAD_PLOTSETTINGS
350
19
  3
ACAD_PLOTSTYLENAME
350
E
  3
ACAD_SCALELIST
350
47
  3
ACAD_SECTIONVIEWSTYLE
350
300
  3
ACAD_TABLESTYLE
350
2FD
  3
ACAD_VISUALSTYLE
350
2A
  3
AcDbVariableDictionary
350
2CB
  0
SUN
  5
69
330
29
100
AcDbSun
 90
        1
290
     0
 63
     7
421
 16777215
 40
1.0
291
     1
 91
  2455826
 92
 54000000
292
     0
 70
     2
 71
   256
280
     1
  0
DICTIONARY
  5
29A
330
297
100
AcDbDictionary
280
     1
281
     1
  0
DICTIONARY
  5
2AB
330
2AA
100
AcDbDictionary
280
     1
281
     1
  0
DICTIONARY
  5
2FF
102
{ACAD_REACTORS
330
C
102
}
330
C
100
AcDbDictionary
281
     1
  0
DICTIONARY
  5
D
102
{ACAD_REACTORS
330
C
102
}
330
C
100
AcDbDictionary
281
     1
  0
DICTIONARY
  5
1A
102
{ACAD_REACTORS
330
C
102
}
330
C
100
AcDbDictionary
281
     1
  3
Layout1
350
1E
  3
Layout2
350
26
  3
Model
350
22
  0
DICTIONARY
  5
43
102
{ACAD_REACTORS
330
C
102
}
330
C
100
AcDbDictionary
281
     1
  3
ByBlock
350
45
  3
ByLayer
350
44
  3
Global
350
46
  0
DICTIONARY
  5
2FE
102
{ACAD_REACTORS
330
C
102
}
330
C
100
AcDbDictionary
281
     1
  0
DICTIONARY
  5
17
102
{ACAD_REACTORS
330
C
102
}
330
C
100
AcDbDictionary
281
     1
  3
Standard
350
18
  0
DICTIONARY
  5
19
102
{ACAD_REACTORS
330
C
102
}
330
C
100
AcDbDictionary
281
     1
  0
ACDBDICTIONARYWDFLT
  5
E
102
{ACAD_REACTORS
330
C
102
}
330
C
100
AcDbDictionary
281
     1
  3
Normal
350
F
100
AcDbDictionaryWithDefault
340
F
  0
DICTIONARY
  5
47
102
{ACAD_REACTORS
330
C
102
}
330
C
100
AcDbDictionary
281
     1
  3
A0
350
48
  3
A1
350
49
  3
A2
350
4A
  3
A3
350
4B
  3
A4
350
4C
  3
A5
350
4D
  3
A6
350
4E
  3
A7
350
4F
  3
A8
350
50
  3
A9
350
51
  3
B0
350
52
  3
B1
350
53
  3
B2
350
54
  3
B3
350
55
  3
B4
350
56
  3
B5
350
57
  3
B6
350
58
  3
B7
350
59
  3
B8
350
5A
  3
B9
350
5B
  3
C0
350
5C
  3
C1
350
5D
  3
C2
350
5E
  3
C3
350
5F
  3
C4
350
60
  3
C5
350
61
  3
C6
350
62
  3
C7
350
63
  3
C8
350
64
  3
C9
350
65
  3
D0
350
66
  3
D1
350
67
  3
D2
350
68
  0
DICTIONARY
  5
300
102
{ACAD_REACTORS
330
C
102
}
330
C
100
AcDbDictionary
281
     1
  0
DICTIONARY
  5
2FD
102
{ACAD_REACTORS
330
C
102
}
330
C
100
AcDbDictionary
281
     1
  0
DICTIONARY
  5
2A
102
{ACAD_REACTORS
330
C
102
}
330
C
100
AcDbDictionary
281
     1
  3
2dWireframe
350
2F
  3
Basic
350
32
  3
Brighten
350
36
  3
ColorChange
350
3A
  3
Conceptual
350
34
  3
Dim
350
35
  3
EdgeColorOff
350
3D
  3
Facepattern
350
39
  3
Flat
350
2B
  3
FlatWithEdges
350
2C
  3
Gouraud
350
2D
  3
GouraudWithEdges
350
2E
  3
Hidden
350
31
  3
JitterOff
350
3B
  3
Linepattern
350
38
  3
OverhangOff
350
3C
  3
Realistic
350
33
  3
Shaded
350
42
  3
Shaded with edges
350
41
  3
Shades of Gray
350
3E
  3
Sketchy
350
3F
  3
Thicken
350
37
  3
Wireframe
350
30
  3
X-Ray
350
40
  0
DICTIONARY
  5
2CB
102
{ACAD_REACTORS
330
C
102
}
330
C
100
AcDbDictionary
281
     1
  3
CANNOSCALE
350
2CC
  0
LAYOUT
  5
1E
102
{ACAD_REACTORS
330
1A
102
}
330
1A
100
AcDbPlotSettings
  1

  2
none_device
  4

  6

 40
0.0
 41
0.0
 42
0.0
 43
0.0
 44
0.0
 45
0.0
 46
0.0
 47
0.0
 48
0.0
 49
0.0
140
0.0
141
0.0
142
1.0
143
1.0
 70
   688
 72
     1
 73
     0
 74
     5
  7

 75
    16
 76
     0
 77
     2
 78
   300
147
1.0
148
0.0
149
0.0
100
AcDbLayout
  1
Layout1
 70
     1
 71
     1
 10
0.0
 20
0.0
 11
420.0
 21
297.0
 12
0.0
 22
0.0
 32
0.0
 14
1.000000000000000E+20
 24
1.000000000000000E+20
 34
1.000000000000000E+20
 15
-1.000000000000000E+20
 25
-1.000000000000000E+20
 35
-1.000000000000000E+20
146
0.0
 13
0.0
 23
0.0
 33
0.0
 16
1.0
 26
0.0
 36
0.0
 17
0.0
 27
1.0
 37
0.0
 76
     0
330
1B
  0
LAYOUT
  5
26
102
{ACAD_REACTORS
330
1A
102
}
330
1A
100
AcDbPlotSettings
  1

  2
none_device
  4

  6

 40
0.0
 41
0.0
 42
0.0
 43
0.0
 44
0.0
 45
0.0
 46
0.0
 47
0.0
 48
0.0
 49
0.0
140
0.0
141
0.0
142
1.0
143
1.0
 70
   688
 72
     1
 73
     0
 74
     5
  7

 75
    16
 76
     0
 77
     2
 78
   300
147
1.0
148
0.0
149
0.0
100
AcDbLayout
  1
Layout2
 70
     1
 71
     2
 10
0.0
 20
0.0
 11
0.0
 21
0.0
 12
0.0
 22
0.0
 32
0.0
 14
0.0
 24
0.0
 34
0.0
 15
0.0
 25
0.0
 35
0.0
146
0.0
 13
0.0
 23
0.0
 33
0.0
 16
1.0
 26
0.0
 36
0.0
 17
0.0
 27
1.0
 37
0.0
 76
     0
330
23
  0
LAYOUT
  5
22
102
{ACAD_REACTORS
330
1A
102
}
330
1A
100
AcDbPlotSettings
  1

  2
none_device
  4
Letter_(8.50_x_11.00_Inches)
  6

 40
6.35
 41
6.35
 42
6.35000508
 43
6.35000508
 44
215.9
 45
279.4
 46
0.0
 47
0.0
 48
0.0
 49
0.0
140
0.0
141
0.0
142
1.0
143
1.0
 70
  1712
 72
     1
 73
     0
 74
     0
  7

 75
     0
 76
     0
 77
     2
 78
   300
147
1.0
148
0.0
149
0.0
100
AcDbLayout
  1
Model
 70
     1
 71
     0
 10
0.0
 20
0.0
 11
420.0
 21
297.0
 12
0.0
 22
0.0
 32
0.0
 14
15.0
 24
15.0
 34
-1257.193847114418
 15
1470.0
 25
1035.0
 35
0.0
146
0.0
 13
0.0
 23
0.0
 33
0.0
 16
1.0
 26
0.0
 36
0.0
 17
0.0
 27
1.0
 37
0.0
 76
     0
330
1F
331
29
  0
MATERIAL
  5
45
102
{ACAD_REACTORS
330
43
102
}
330
43
100
AcDbMaterial
  1
ByBlock
 72
     1
 94
      127
  0
MATERIAL
  5
44
102
{ACAD_REACTORS
330
43
102
}
330
43
100
AcDbMaterial
  1
ByLayer
 72
     1
 94
      127
  0
MATERIAL
  5
46
102
{ACAD_REACTORS
330
43
102
}
330
43
100
AcDbMaterial
  1
Global
 72
     1
 94
      127
  0
MLINESTYLE
  5
18
102
{ACAD_REACTORS
330
17
102
}
330
17
100
AcDbMlineStyle
  2
Standard
 70
     0
  3

 62
   256
 51
90.0
 52
90.0
 71
     2
 49
0.5
 62
   256
  6
BYLAYER
 49
-0.5
 62
   256
  6
BYLAYER
  0
ACDBPLACEHOLDER
  5
F
102
{ACAD_REACTORS
330
E
102
}
330
E
  0
SCALE
  5
48
102
{ACAD_REACTORS
330
47
102
}
330
47
100
AcDbScale
 70
     0
300
1:1
140
1.0
141
1.0
290
     1
  0
SCALE
  5
49
102
{ACAD_REACTORS
330
47
102
}
330
47
100
AcDbScale
 70
     0
300
1:2
140
1.0
141
2.0
290
     0
  0
SCALE
  5
4A
102
{ACAD_REACTORS
330
47
102
}
330
47
100
AcDbScale
 70
     0
300
1:4
140
1.0
141
4.0
290
     0
  0
SCALE
  5
4B
102
{ACAD_REACTORS
330
47
102
}
330
47
100
AcDbScale
 70
     0
300
1:5
140
1.0
141
5.0
290
     0
  0
SCALE
  5
4C
102
{ACAD_REACTORS
330
47
102
}
330
47
100
AcDbScale
 70
     0
300
1:8
140
1.0
141
8.0
290
     0
  0
SCALE
  5
4D
102
{ACAD_REACTORS
330
47
102
}
330
47
100
AcDbScale
 70
     0
300
1:10
140
1.0
141
10.0
290
     0
  0
SCALE
  5
4E
102
{ACAD_REACTORS
330
47
102
}
330
47
100
AcDbScale
 70
     0
300
1:16
140
1.0
141
16.0
290
     0
  0
SCALE
  5
4F
102
{ACAD_REACTORS
330
47
102
}
330
47
100
AcDbScale
 70
     0
300
1:20
140
1.0
141
20.0
290
     0
  0
SCALE
  5
50
102
{ACAD_REACTORS
330
47
102
}
330
47
100
AcDbScale
 70
     0
300
1:30
140
1.0
141
30.0
290
     0
  0
SCALE
  5
51
102
{ACAD_REACTORS
330
47
102
}
330
47
100
AcDbScale
 70
     0
300
1:40
140
1.0
141
40.0
290
     0
  0
SCALE
  5
52
102
{ACAD_REACTORS
330
47
102
}
330
47
100
AcDbScale
 70
     0
300
1:50
140
1.0
141
50.0
290
     0
  0
SCALE
  5
53
102
{ACAD_REACTORS
330
47
102
}
330
47
100
AcDbScale
 70
     0
300
1:100
140
1.0
141
100.0
290
     0
  0
SCALE
  5
54
102
{ACAD_REACTORS
330
47
102
}
330
47
100
AcDbScale
 70
     0
300
2:1
140
2.0
141
1.0
290
     0
  0
SCALE
  5
55
102
{ACAD_REACTORS
330
47
102
}
330
47
100
AcDbScale
 70
     0
300
4:1
140
4.0
141
1.0
290
     0
  0
SCALE
  5
56
102
{ACAD_REACTORS
330
47
102
}
330
47
100
AcDbScale
 70
     0
300
8:1
140
8.0
141
1.0
290
     0
  0
SCALE
  5
57
102
{ACAD_REACTORS
330
47
102
}
330
47
100
AcDbScale
 70
     0
300
10:1
140
10.0
141
1.0
290
     0
  0
SCALE
  5
58
102
{ACAD_REACTORS
330
47
102
}
330
47
100
AcDbScale
 70
     0
300
100:1
140
100.0
141
1.0
290
     0
  0
SCALE
  5
59
102
{ACAD_REACTORS
330
47
102
}
330
47
100
AcDbScale
 70
     0
300
1/128" = 1'-0"
140
0.0078125
141
12.0
290
     0
  0
SCALE
  5
5A
102
{ACAD_REACTORS
330
47
102
}
330
47
100
AcDbScale
 70
     0
300
1/64" = 1'-0"
140
0.015625
141
12.0
290
     0
  0
SCALE
  5
5B
102
{ACAD_REACTORS
330
47
102
}
330
47
100
AcDbScale
 70
     0
300
1/32" = 1'-0"
140
0.03125
141
12.0
290
     0
  0
SCALE
  5
5C
102
{ACAD_REACTORS
330
47
102
}
330
47
100
AcDbScale
 70
     0
300
1/16" = 1'-0"
140
0.0625
141
12.0
290
     0
  0
SCALE
  5
5D
102
{ACAD_REACTORS
330
47
102
}
330
47
100
AcDbScale
 70
     0
300
3/32" = 1'-0"
140
0.09375
141
12.0
290
     0
  0
SCALE
  5
5E
102
{ACAD_REACTORS
330
47
102
}
330
47
100
AcDbScale
 70
     0
300
1/8" = 1'-0"
140
0.125
141
12.0
290
     0
  0
SCALE
  5
5F
102
{ACAD_REACTORS
330
47
102
}
330
47
100
AcDbScale
 70
     0
300
3/16" = 1'-0"
140
0.1875
141
12.0
290
     0
  0
SCALE
  5
60
102
{ACAD_REACTORS
330
47
102
}
330
47
100
AcDbScale
 70
     0
300
1/4" = 1'-0"
140
0.25
141
12.0
290
     0
  0
SCALE
  5
61
102
{ACAD_REACTORS
330
47
102
}
330
47
100
AcDbScale
 70
     0
300
3/8" = 1'-0"
140
0.375
141
12.0
290
     0
  0
SCALE
  5
62
102
{ACAD_REACTORS
330
47
102
}
330
47
100
AcDbScale
 70
     0
300
1/2" = 1'-0"
140
0.5
141
12.0
290
     0
  0
SCALE
  5
63
102
{ACAD_REACTORS
330
47
102
}
330
47
100
AcDbScale
 70
     0
300
3/4" = 1'-0"
140
0.75
141
12.0
290
     0
  0
SCALE
  5
64
102
{ACAD_REACTORS
330
47
102
}
330
47
100
AcDbScale
 70
     0
300
1" = 1'-0"
140
1.0
141
12.0
290
     0
  0
SCALE
  5
65
102
{ACAD_REACTORS
330
47
102
}
330
47
100
AcDbScale
 70
     0
300
1-1/2" = 1'-0"
140
1.5
141
12.0
290
     0
  0
SCALE
  5
66
102
{ACAD_REACTORS
330
47
102
}
330
47
100
AcDbScale
 70
     0
300
3" = 1'-0"
140
3.0
141
12.0
290
     0
  0
SCALE
  5
67
102
{ACAD_REACTORS
330
47
102
}
330
47
100
AcDbScale
 70
     0
300
6" = 1'-0"
140
6.0
141
12.0
290
     0
  0
SCALE
  5
68
102
{ACAD_REACTORS
330
47
102
}
330
47
100
AcDbScale
 70
     0
300
1'-0" = 1'-0"
140
12.0
141
12.0
290
     0
  0
VISUALSTYLE
  5
2F
102
{ACAD_REACTORS
330
2A
102
}
102
{ACAD_XDICTIONARY
360
2D5
102
}
330
2A
100
AcDbVisualStyle
  2
2dWireframe
 70
     4
 71
     0
 72
     2
 73
     0
 90
        0
 40
0.6
 41
30.0
 62
     5
 63
     7
421
 16777215
 74
     1
 91
        4
 64
     7
 65
   257
 75
     1
175
     1
 42
1.0
 92
        0
 66
   257
 43
1.0
 76
     1
 77
     6
 78
     2
 67
     7
 79
     5
170
     0
171
     0
290
     0
174
     0
 93
        1
 44
0.0
173
     0
291
     0
 45
0.0
  0
VISUALSTYLE
  5
32
102
{ACAD_REACTORS
330
2A
102
}
102
{ACAD_XDICTIONARY
360
2DB
102
}
330
2A
100
AcDbVisualStyle
  2
Basic
 70
     7
 71
     1
 72
     0
 73
     1
 90
        0
 40
0.6
 41
30.0
 62
     5
 63
     7
421
 16777215
 74
     0
 91
        4
 64
     7
 65
   257
 75
     1
175
     1
 42
1.0
 92
        8
 66
     7
 43
1.0
 76
     1
 77
     6
 78
     2
 67
     7
 79
     5
170
     0
171
     0
290
     0
174
     0
 93
        1
 44
0.0
173
     0
291
     1
 45
0.0
  0
VISUALSTYLE
  5
36
102
{ACAD_REACTORS
330
2A
102
}
102
{ACAD_XDICTIONARY
360
2E3
102
}
330
2A
100
AcDbVisualStyle
  2
Brighten
 70
    12
 71
     2
 72
     2
 73
     0
 90
        0
 40
0.6
 41
30.0
 62
     5
 63
     7
421
 16777215
 74
     1
 91
        4
 64
     7
 65
   257
 75
     1
175
     1
 42
1.0
 92
        8
 66
     7
 43
1.0
 76
     1
 77
     6
 78
     2
 67
     7
 79
     5
170
     0
171
     0
290
     0
174
     0
 93
        1
 44
50.0
173
     0
291
     1
 45
0.0
  0
VISUALSTYLE
  5
3A
102
{ACAD_REACTORS
330
2A
102
}
102
{ACAD_XDICTIONARY
360
2EB
102
}
330
2A
100
AcDbVisualStyle
  2
ColorChange
 70
    16
 71
     2
 72
     2
 73
     3
 90
        0
 40
0.6
 41
30.0
 62
     5
 63
     8
421
  8421504
 74
     1
 91
        4
 64
     7
 65
   257
 75
     1
175
     1
 42
1.0
 92
        8
 66
     8
424
  8421504
 43
1.0
 76
     1
 77
     6
 78
     2
 67
     7
 79
     5
170
     0
171
     0
290
     0
174
     0
 93
        1
 44
0.0
173
     0
291
     1
 45
0.0
  0
VISUALSTYLE
  5
34
102
{ACAD_REACTORS
330
2A
102
}
102
{ACAD_XDICTIONARY
360
2DF
102
}
330
2A
100
AcDbVisualStyle
  2
Conceptual
 70
     9
 71
     3
 72
     2
 73
     0
 90
        0
 40
0.6
 41
30.0
 62
     5
 63
     7
421
 16777215
 74
     2
 91
        2
 64
     7
 65
   257
 75
     1
175
     1
 42
179.0
 92
        8
 66
     7
 43
1.0
 76
     1
 77
     6
 78
     2
 67
     7
 79
     3
170
     0
171
     0
290
     0
174
     0
 93
        1
 44
0.0
173
     0
291
     0
 45
0.0
  0
VISUALSTYLE
  5
35
102
{ACAD_REACTORS
330
2A
102
}
102
{ACAD_XDICTIONARY
360
2E1
102
}
330
2A
100
AcDbVisualStyle
  2
Dim
 70
    11
 71
     2
 72
     2
 73
     0
 90
        0
 40
0.6
 41
30.0
 62
     5
 63
     7
421
 16777215
 74
     1
 91
        4
 64
     7
 65
   257
 75
     1
175
     1
 42
1.0
 92
        8
 66
     7
 43
1.0
 76
     1
 77
     6
 78
     2
 67
     7
 79
     5
170
     0
171
     0
290
     0
174
     0
 93
        1
 44
-50.0
173
     0
291
     1
 45
0.0
  0
VISUALSTYLE
  5
3D
102
{ACAD_REACTORS
330
2A
102
}
102
{ACAD_XDICTIONARY
360
2F1
102
}
330
2A
100
AcDbVisualStyle
  2
EdgeColorOff
 70
    22
 71
     2
 72
     2
 73
     0
 90
        0
 40
0.6
 41
30.0
 62
     5
 63
     7
421
 16777215
 74
     1
 91
        4
 64
     7
 65
   257
 75
     1
175
     1
 42
1.0
 92
        8
 66
     7
 43
1.0
 76
     1
 77
     6
 78
     2
 67
     7
 79
     5
170
     0
171
     0
290
     0
174
     0
 93
        1
 44
0.0
173
     0
291
     1
 45
0.0
  0
VISUALSTYLE
  5
39
102
{ACAD_REACTORS
330
2A
102
}
102
{ACAD_XDICTIONARY
360
2E9
102
}
330
2A
100
AcDbVisualStyle
  2
Facepattern
 70
    15
 71
     2
 72
     2
 73
     0
 90
        0
 40
0.6
 41
30.0
 62
     5
 63
     7
421
 16777215
 74
     1
 91
        4
 64
     7
 65
   257
 75
     1
175
     1
 42
1.0
 92
        8
 66
     7
 43
1.0
 76
     1
 77
     6
 78
     2
 67
     7
 79
     5
170
     0
171
     0
290
     0
174
     0
 93
        1
 44
0.0
173
     0
291
     1
 45
0.0
  0
VISUALSTYLE
  5
2B
102
{ACAD_REACTORS
330
2A
102
}
102
{ACAD_XDICTIONARY
360
2CD
102
}
330
2A
100
AcDbVisualStyle
  2
Flat
 70
     0
 71
     2
 72
     1
 73
     1
 90
        2
 40
0.6
 41
30.0
 62
     5
 63
     7
421
 16777215
 74
     0
 91
        0
 64
     7
 65
   257
 75
     1
175
     1
 42
1.0
 92
        8
 66
     7
 43
1.0
 76
     1
 77
     6
 78
     2
 67
     7
 79
     5
170
     0
171
     0
290
     0
174
     0
 93
       13
 44
0.0
173
     0
291
     1
 45
0.0
  0
VISUALSTYLE
  5
2C
102
{ACAD_REACTORS
330
2A
102
}
102
{ACAD_XDICTIONARY
360
2CF
102
}
330
2A
100
AcDbVisualStyle
  2
FlatWithEdges
 70
     1
 71
     2
 72
     1
 73
     1
 90
        2
 40
0.6
 41
30.0
 62
     5
 63
     7
421
 16777215
 74
     1
 91
        0
 64
     7
 65
   257
 75
     1
175
     1
 42
1.0
 92
        0
 66
   257
 43
1.0
 76
     1
 77
     6
 78
     2
 67
     7
 79
     5
170
     0
171
     0
290
     0
174
     0
 93
       13
 44
0.0
173
     0
291
     1
 45
0.0
  0
VISUALSTYLE
  5
2D
102
{ACAD_REACTORS
330
2A
102
}
102
{ACAD_XDICTIONARY
360
2D1
102
}
330
2A
100
AcDbVisualStyle
  2
Gouraud
 70
     2
 71
     2
 72
     2
 73
     1
 90
        2
 40
0.6
 41
30.0
 62
     5
 63
     7
421
 16777215
 74
     0
 91
        0
 64
     7
 65
   257
 75
     1
175
     1
 42
1.0
 92
        0
 66
     7
 43
1.0
 76
     1
 77
     6
 78
     2
 67
     7
 79
     5
170
     0
171
     0
290
     0
174
     0
 93
       13
 44
0.0
173
     0
291
     1
 45
0.0
  0
VISUALSTYLE
  5
2E
102
{ACAD_REACTORS
330
2A
102
}
102
{ACAD_XDICTIONARY
360
2D3
102
}
330
2A
100
AcDbVisualStyle
  2
GouraudWithEdges
 70
     3
 71
     2
 72
     2
 73
     1
 90
        2
 40
0.6
 41
30.0
 62
     5
 63
     7
421
 16777215
 74
     1
 91
        0
 64
     7
 65
   257
 75
     1
175
     1
 42
1.0
 92
        0
 66
   257
 43
1.0
 76
     1
 77
     6
 78
     2
 67
     7
 79
     5
170
     0
171
     0
290
     0
174
     0
 93
       13
 44
0.0
173
     0
291
     1
 45
0.0
  0
VISUALSTYLE
  5
31
102
{ACAD_REACTORS
330
2A
102
}
102
{ACAD_XDICTIONARY
360
2D9
102
}
330
2A
100
AcDbVisualStyle
  2
Hidden
 70
     6
 71
     1
 72
     2
 73
     2
 90
        0
 40
0.6
 41
30.0
 62
     5
 63
     7
421
 16777215
 74
     2
 91
        2
 64
     7
 65
   257
 75
     2
175
     1
 42
40.0
 92
        0
 66
   257
 43
1.0
 76
     1
 77
     6
 78
     2
 67
     7
 79
     3
170
     0
171
     0
290
     0
174
     0
 93
        1
 44
0.0
173
     0
291
     0
 45
0.0
  0
VISUALSTYLE
  5
3B
102
{ACAD_REACTORS
330
2A
102
}
102
{ACAD_XDICTIONARY
360
2ED
102
}
330
2A
100
AcDbVisualStyle
  2
JitterOff
 70
    20
 71
     2
 72
     2
 73
     0
 90
        0
 40
0.6
 41
30.0
 62
     5
 63
     7
421
 16777215
 74
     1
 91
        4
 64
     7
 65
   257
 75
     1
175
     1
 42
1.0
 92
       10
 66
     7
 43
1.0
 76
     1
 77
     6
 78
     2
 67
     7
 79
     5
170
     0
171
     0
290
     0
174
     0
 93
        1
 44
0.0
173
     0
291
     1
 45
0.0
  0
VISUALSTYLE
  5
38
102
{ACAD_REACTORS
330
2A
102
}
102
{ACAD_XDICTIONARY
360
2E7
102
}
330
2A
100
AcDbVisualStyle
  2
Linepattern
 70
    14
 71
     2
 72
     2
 73
     0
 90
        0
 40
0.6
 41
30.0
 62
     5
 63
     7
421
 16777215
 74
     1
 91
        4
 64
     7
 65
   257
 75
     7
175
     7
 42
1.0
 92
        8
 66
     7
 43
1.0
 76
     1
 77
     6
 78
     2
 67
     7
 79
     5
170
     0
171
     0
290
     0
174
     0
 93
        1
 44
0.0
173
     0
291
     1
 45
0.0
  0
VISUALSTYLE
  5
3C
102
{ACAD_REACTORS
330
2A
102
}
102
{ACAD_XDICTIONARY
360
2EF
102
}
330
2A
100
AcDbVisualStyle
  2
OverhangOff
 70
    21
 71
     2
 72
     2
 73
     0
 90
        0
 40
0.6
 41
30.0
 62
     5
 63
     7
421
 16777215
 74
     1
 91
        4
 64
     7
 65
   257
 75
     1
175
     1
 42
1.0
 92
        9
 66
     7
 43
1.0
 76
     1
 77
     6
 78
     2
 67
     7
 79
     5
170
     0
171
     0
290
     0
174
     0
 93
        1
 44
0.0
173
     0
291
     1
 45
0.0
  0
VISUALSTYLE
  5
33
102
{ACAD_REACTORS
330
2A
102
}
102
{ACAD_XDICTIONARY
360
2DD
102
}
330
2A
100
AcDbVisualStyle
  2
Realistic
 70
     8
 71
     2
 72
     3
 73
     0
 90
        2
 40
0.6
 41
30.0
 62
     5
 63
     7
421
 16777215
 74
     0
 91
        0
 64
     7
 65
   257
 75
     1
175
     1
 42
1.0
 92
        8
 66
   257
 43
1.0
 76
     1
 77
     6
 78
     2
 67
     7
 79
     3
170
     0
171
     0
290
     0
174
     0
 93
       13
 44
0.0
173
     0
291
     0
 45
0.0
  0
VISUALSTYLE
  5
42
102
{ACAD_REACTORS
330
2A
102
}
102
{ACAD_XDICTIONARY
360
2FB
102
}
330
2A
100
AcDbVisualStyle
  2
Shaded
 70
    27
 71
     2
 72
     2
 73
     1
 90
        2
 40
0.6
 41
30.0
 62
     5
 63
     7
421
 16777215
 74
     0
 91
        4
 64
     7
 65
   257
 75
     1
175
     1
 42
1.0
 92
        8
 66
   257
 43
1.0
 76
     1
 77
     6
 78
     2
 67
     8
425
  7895160
 79
     3
170
     0
171
     0
290
     0
174
     0
 93
        5
 44
0.0
173
     0
291
     0
 45
0.0
  0
VISUALSTYLE
  5
41
102
{ACAD_REACTORS
330
2A
102
}
102
{ACAD_XDICTIONARY
360
2F9
102
}
330
2A
100
AcDbVisualStyle
  2
Shaded with edges
 70
    26
 71
     2
 72
     2
 73
     1
 90
        2
 40
0.6
 41
30.0
 62
     5
 63
     7
421
 16777215
 74
     1
 91
       10
 64
     7
 65
   257
 75
     2
175
     1
 42
1.0
 92
        8
 66
   257
 43
1.0
 76
     1
 77
     6
 78
     2
 67
     7
 79
     3
170
     0
171
     0
290
     0
174
     0
 93
        5
 44
0.0
173
     0
291
     0
 45
0.0
  0
VISUALSTYLE
  5
3E
102
{ACAD_REACTORS
330
2A
102
}
102
{ACAD_XDICTIONARY
360
2F3
102
}
330
2A
100
AcDbVisualStyle
  2
Shades of Gray
 70
    23
 71
     2
 72
     2
 73
     3
 90
        0
 40
0.6
 41
30.0
 62
     5
 63
     7
421
 16777215
 74
     2
 91
        2
 64
     7
 65
     7
 75
     1
175
     1
 42
40.0
 92
        8
 66
     7
 43
1.0
 76
     1
 77
     6
 78
     2
 67
     7
 79
     3
170
     0
171
     0
290
     0
174
     0
 93
        1
 44
0.0
173
     0
291
     0
 45
0.0
  0
VISUALSTYLE
  5
3F
102
{ACAD_REACTORS
330
2A
102
}
102
{ACAD_XDICTIONARY
360
2F5
102
}
330
2A
100
AcDbVisualStyle
  2
Sketchy
 70
    24
 71
     1
 72
     2
 73
     2
 90
        0
 40
0.6
 41
30.0
 62
     5
 63
     7
421
 16777215
 74
     2
 91
        2
 64
     7
 65
     7
 75
     1
175
     1
 42
40.0
 92
       11
 66
     7
 43
1.0
 76
     1
 77
     6
 78
     2
 67
     7
 79
     6
170
     0
171
     0
290
     0
174
     0
 93
        1
 44
0.0
173
     0
291
     0
 45
0.0
  0
VISUALSTYLE
  5
37
102
{ACAD_REACTORS
330
2A
102
}
102
{ACAD_XDICTIONARY
360
2E5
102
}
330
2A
100
AcDbVisualStyle
  2
Thicken
 70
    13
 71
     2
 72
     2
 73
     0
 90
        0
 40
0.6
 41
30.0
 62
     5
 63
     7
421
 16777215
 74
     1
 91
        4
 64
     7
 65
   257
 75
     1
175
     1
 42
1.0
 92
       12
 66
     7
 43
1.0
 76
     1
 77
     6
 78
     2
 67
     7
 79
     5
170
     0
171
     0
290
     0
174
     0
 93
        1
 44
0.0
173
     0
291
     1
 45
0.0
  0
VISUALSTYLE
  5
30
102
{ACAD_REACTORS
330
2A
102
}
102
{ACAD_XDICTIONARY
360
2D7
102
}
330
2A
100
AcDbVisualStyle
  2
Wireframe
 70
     5
 71
     0
 72
     2
 73
     0
 90
        0
 40
0.6
 41
30.0
 62
     5
 63
     7
421
 16777215
 74
     1
 91
        4
 64
     7
 65
   257
 75
     1
175
     1
 42
1.0
 92
        0
 66
   257
 43
1.0
 76
     1
 77
     6
 78
     2
 67
     7
 79
     3
170
     0
171
     0
290
     0
174
     0
 93
        1
 44
0.0
173
     0
291
     0
 45
0.0
  0
VISUALSTYLE
  5
40
102
{ACAD_REACTORS
330
2A
102
}
102
{ACAD_XDICTIONARY
360
2F7
102
}
330
2A
100
AcDbVisualStyle
  2
X-Ray
 70
    25
 71
     2
 72
     2
 73
     1
 90
        1
 40
0.5
 41
30.0
 62
     5
 63
     7
421
 16777215
 74
     1
 91
        0
 64
     7
 65
   257
 75
     1
175
     1
 42
1.0
 92
        8
 66
     7
 43
1.0
 76
     1
 77
     6
 78
     2
 67
     7
 79
     3
170
     0
171
     0
290
     0
174
     0
 93
       13
 44
0.0
173
     0
291
     0
 45
0.0
  0
DICTIONARYVAR
  5
2CC
102
{ACAD_REACTORS
330
2CB
102
}
330
2CB
100
DictionaryVariables
280
     0
  1
1:1
  0
DICTIONARY
  5
2D5
330
2F
100
AcDbDictionary
280
     1
281
     1
  3
ACAD_XREC_ROUNDTRIP
360
2D6
  0
DICTIONARY
  5
2DB
330
32
100
AcDbDictionary
280
     1
281
     1
  3
ACAD_XREC_ROUNDTRIP
360
2DC
  0
DICTIONARY
  5
2E3
330
36
100
AcDbDictionary
280
     1
281
     1
  3
ACAD_XREC_ROUNDTRIP
360
2E4
  0
DICTIONARY
  5
2EB
330
3A
100
AcDbDictionary
280
     1
281
     1
  3
ACAD_XREC_ROUNDTRIP
360
2EC
  0
DICTIONARY
  5
2DF
330
34
100
AcDbDictionary
280
     1
281
     1
  3
ACAD_XREC_ROUNDTRIP
360
2E0
  0
DICTIONARY
  5
2E1
330
35
100
AcDbDictionary
280
     1
281
     1
  3
ACAD_XREC_ROUNDTRIP
360
2E2
  0
DICTIONARY
  5
2F1
330
3D
100
AcDbDictionary
280
     1
281
     1
  3
ACAD_XREC_ROUNDTRIP
360
2F2
  0
DICTIONARY
  5
2E9
330
39
100
AcDbDictionary
280
     1
281
     1
  3
ACAD_XREC_ROUNDTRIP
360
2EA
  0
DICTIONARY
  5
2CD
330
2B
100
AcDbDictionary
280
     1
281
     1
  3
ACAD_XREC_ROUNDTRIP
360
2CE
  0
DICTIONARY
  5
2CF
330
2C
100
AcDbDictionary
280
     1
281
     1
  3
ACAD_XREC_ROUNDTRIP
360
2D0
  0
DICTIONARY
  5
2D1
330
2D
100
AcDbDictionary
280
     1
281
     1
  3
ACAD_XREC_ROUNDTRIP
360
2D2
  0
DICTIONARY
  5
2D3
330
2E
100
AcDbDictionary
280
     1
281
     1
  3
ACAD_XREC_ROUNDTRIP
360
2D4
  0
DICTIONARY
  5
2D9
330
31
100
AcDbDictionary
280
     1
281
     1
  3
ACAD_XREC_ROUNDTRIP
360
2DA
  0
DICTIONARY
  5
2ED
330
3B
100
AcDbDictionary
280
     1
281
     1
  3
ACAD_XREC_ROUNDTRIP
360
2EE
  0
DICTIONARY
  5
2E7
330
38
100
AcDbDictionary
280
     1
281
     1
  3
ACAD_XREC_ROUNDTRIP
360
2E8
  0
DICTIONARY
  5
2EF
330
3C
100
AcDbDictionary
280
     1
281
     1
  3
ACAD_XREC_ROUNDTRIP
360
2F0
  0
DICTIONARY
  5
2DD
330
33
100
AcDbDictionary
280
     1
281
     1
  3
ACAD_XREC_ROUNDTRIP
360
2DE
  0
DICTIONARY
  5
2FB
330
42
100
AcDbDictionary
280
     1
281
     1
  3
ACAD_XREC_ROUNDTRIP
360
2FC
  0
DICTIONARY
  5
2F9
330
41
100
AcDbDictionary
280
     1
281
     1
  3
ACAD_XREC_ROUNDTRIP
360
2FA
  0
DICTIONARY
  5
2F3
330
3E
100
AcDbDictionary
280
     1
281
     1
  3
ACAD_XREC_ROUNDTRIP
360
2F4
  0
DICTIONARY
  5
2F5
330
3F
100
AcDbDictionary
280
     1
281
     1
  3
ACAD_XREC_ROUNDTRIP
360
2F6
  0
DICTIONARY
  5
2E5
330
37
100
AcDbDictionary
280
     1
281
     1
  3
ACAD_XREC_ROUNDTRIP
360
2E6
  0
DICTIONARY
  5
2D7
330
30
100
AcDbDictionary
280
     1
281
     1
  3
ACAD_XREC_ROUNDTRIP
360
2D8
  0
DICTIONARY
  5
2F7
330
40
100
AcDbDictionary
280
     1
281
     1
  3
ACAD_XREC_ROUNDTRIP
360
2F8
  0
XRECORD
  5
2D6
102
{ACAD_REACTORS
330
2D5
102
}
330
2D5
100
AcDbXrecord
280
     1
102
RTVSPropertyOp0
 70
     1
102
RTVSPropertyOp1
 70
     1
102
RTVSPropertyOp2
 70
     1
102
RTVSPropertyOp3
 70
     1
102
RTVSPropertyOp4
 70
     1
102
RTVSPropertyOp5
 70
     1
102
RTVSPropertyOp6
 70
     1
102
RTVSPropertyOp7
 70
     1
102
RTVSPropertyOp8
 70
     1
102
RTVSPropertyOp9
 70
     1
102
RTVSPropertyOp10
 70
     1
102
RTVSPropertyOp11
 70
     1
102
RTVSPropertyOp12
 70
     1
102
RTVSPropertyOp13
 70
     1
102
RTVSPropertyOp14
 70
     1
102
RTVSPropertyOp15
 70
     1
102
RTVSPropertyOp16
 70
     1
102
RTVSPropertyOp17
 70
     1
102
RTVSPropertyOp18
 70
     1
102
RTVSPropertyOp19
 70
     1
102
RTVSPropertyOp20
 70
     1
102
RTVSPropertyOp21
 70
     1
102
RTVSPropertyOp22
 70
     1
102
RTVSPropertyOp23
 70
     1
102
RTVSPropertyOp24
 70
     1
102
RTVSPropertyOp25
 70
     1
102
RTVSPropertyOp26
 70
     1
102
RTVSPropertyOp27
 70
     1
102
RTVSPropertyOp28
 70
     1
102
RTVSPropertyOp29
 70
     1
102
RTVSPropertyOp30
 70
     1
102
RTVSPropertyOp31
 70
     1
102
RTVSPropertyOp32
 70
     1
102
RTVSPropertyOp33
 70
     1
102
RTVSPropertyOp34
 70
     1
102
RTVSPropertyOp35
 70
     1
102
RTVSPropertyOp36
 70
     1
102
RTVSPropertyOp37
 70
     1
102
RTVSPropertyOp38
 70
     1
102
RTVSPropertyOp39
 70
     1
102
RTVSPropertyOp40
 70
     1
102
RTVSPropertyOp41
 70
     1
102
RTVSPropertyOp42
 70
     1
102
RTVSPropertyOp43
 70
     1
102
RTVSPropertyOp44
 70
     1
102
RTVSPropertyOp45
 70
     1
102
RTVSPropertyOp46
 70
     1
102
RTVSPropertyOp47
 70
     1
102
RTVSPropertyOp48
 70
     1
102
RTVSPropertyOp49
 70
     1
102
RTVSPropertyOp50
 70
     1
102
RTVSPropertyOp51
 70
     0
102
RTVSPropertyOp52
 70
     0
102
RTVSPropertyOp53
 70
     1
102
RTVSPropertyOp54
 70
     1
102
RTVSPropertyOp55
 70
     1
102
RTVSPropertyOp56
 70
     1
102
RTVSPropertyOp57
 70
     1
102
RTVSPost2010Prop28
280
     1
102
RTVSPost2010PropOp28
 70
     1
102
RTVSPost2010Prop29
280
     1
102
RTVSPost2010PropOp29
 70
     1
102
RTVSPost2010Prop30
280
     0
102
RTVSPost2010PropOp30
 70
     1
102
RTVSPost2010Prop31
280
     0
102
RTVSPost2010PropOp31
 70
     1
102
RTVSPost2010Prop32
280
     0
102
RTVSPost2010PropOp32
 70
     1
102
RTVSPost2010Prop33
280
     0
102
RTVSPost2010PropOp33
 70
     1
102
RTVSPost2010Prop34
280
     0
102
RTVSPost2010PropOp34
 70
     1
102
RTVSPost2010Prop35
280
     0
102
RTVSPost2010PropOp35
 70
     1
102
RTVSPost2010Prop36
280
     0
102
RTVSPost2010PropOp36
 70
     1
102
RTVSPost2010Prop37
 90
       50
102
RTVSPost2010PropOp37
 70
     1
102
RTVSPost2010Prop38
140
0.0
102
RTVSPost2010PropOp38
 70
     1
102
RTVSPost2010Prop39
140
1.0
102
RTVSPost2010PropOp39
 70
     1
102
RTVSPost2010Prop40
 90
        0
102
RTVSPost2010PropOp40
 70
     1
102
RTVSPost2010Prop41ColorIndex
 90
       18
102
RTVSPost2010Prop41ColorRGB
 90
        0
102
RTVSPost2010PropOp41
 70
     1
102
RTVSPost2010Prop42
 90
       50
102
RTVSPost2010PropOp42
 70
     1
102
RTVSPost2010Prop43
 90
        3
102
RTVSPost2010PropOp43
 70
     1
102
RTVSPost2010Prop44ColorIndex
 90
        5
102
RTVSPost2010Prop44ColorRGB
 90
      255
102
RTVSPost2010PropOp44
 70
     1
102
RTVSPost2010Prop45
280
     0
102
RTVSPost2010PropOp45
 70
     1
102
RTVSPost2010Prop46
 90
       50
102
RTVSPost2010PropOp46
 70
     1
102
RTVSPost2010Prop47
 90
       50
102
RTVSPost2010PropOp47
 70
     1
102
RTVSPost2010Prop48
 90
       50
102
RTVSPost2010PropOp48
 70
     1
102
RTVSPost2010Prop49
280
     0
102
RTVSPost2010PropOp49
 70
     1
102
RTVSPost2010Prop50
 90
       50
102
RTVSPost2010PropOp50
 70
     1
102
RTVSPost2010Prop51ColorIndex
 90
      256
102
RTVSPost2010Prop51ColorRGB
 90
-16777216
102
RTVSPost2010PropOp51
 70
     0
102
RTVSPost2010Prop52
140
1.0
102
RTVSPost2010PropOp52
 70
     0
102
RTVSPost2010Prop53
 90
        2
102
RTVSPost2010PropOp53
 70
     1
102
RTVSPost2010Prop54
  1
strokes_ogs.tif
102
RTVSPost2010PropOp54
 70
     1
102
RTVSPost2010Prop55
280
     0
102
RTVSPost2010PropOp55
 70
     1
102
RTVSPost2010Prop56
140
1.0
102
RTVSPost2010PropOp56
 70
     1
102
RTVSPost2010Prop57
140
1.0
102
RTVSPost2010PropOp57
 70
     1
  0
XRECORD
  5
2DC
102
{ACAD_REACTORS
330
2DB
102
}
330
2DB
100
AcDbXrecord
280
     1
102
RTVSPropertyOp0
 70
     1
102
RTVSPropertyOp1
 70
     1
102
RTVSPropertyOp2
 70
     1
102
RTVSPropertyOp3
 70
     1
102
RTVSPropertyOp4
 70
     1
102
RTVSPropertyOp5
 70
     1
102
RTVSPropertyOp6
 70
     1
102
RTVSPropertyOp7
 70
     1
102
RTVSPropertyOp8
 70
     1
102
RTVSPropertyOp9
 70
     1
102
RTVSPropertyOp10
 70
     1
102
RTVSPropertyOp11
 70
     1
102
RTVSPropertyOp12
 70
     1
102
RTVSPropertyOp13
 70
     1
102
RTVSPropertyOp14
 70
     1
102
RTVSPropertyOp15
 70
     1
102
RTVSPropertyOp16
 70
     1
102
RTVSPropertyOp17
 70
     1
102
RTVSPropertyOp18
 70
     1
102
RTVSPropertyOp19
 70
     1
102
RTVSPropertyOp20
 70
     1
102
RTVSPropertyOp21
 70
     1
102
RTVSPropertyOp22
 70
     1
102
RTVSPropertyOp23
 70
     1
102
RTVSPropertyOp24
 70
     1
102
RTVSPropertyOp25
 70
     1
102
RTVSPropertyOp26
 70
     1
102
RTVSPropertyOp27
 70
     1
102
RTVSPropertyOp28
 70
     1
102
RTVSPropertyOp29
 70
     1
102
RTVSPropertyOp30
 70
     1
102
RTVSPropertyOp31
 70
     1
102
RTVSPropertyOp32
 70
     1
102
RTVSPropertyOp33
 70
     1
102
RTVSPropertyOp34
 70
     1
102
RTVSPropertyOp35
 70
     1
102
RTVSPropertyOp36
 70
     1
102
RTVSPropertyOp37
 70
     1
102
RTVSPropertyOp38
 70
     1
102
RTVSPropertyOp39
 70
     1
102
RTVSPropertyOp40
 70
     1
102
RTVSPropertyOp41
 70
     1
102
RTVSPropertyOp42
 70
     1
102
RTVSPropertyOp43
 70
     1
102
RTVSPropertyOp44
 70
     1
102
RTVSPropertyOp45
 70
     1
102
RTVSPropertyOp46
 70
     1
102
RTVSPropertyOp47
 70
     1
102
RTVSPropertyOp48
 70
     1
102
RTVSPropertyOp49
 70
     1
102
RTVSPropertyOp50
 70
     1
102
RTVSPropertyOp51
 70
     0
102
RTVSPropertyOp52
 70
     0
102
RTVSPropertyOp53
 70
     1
102
RTVSPropertyOp54
 70
     1
102
RTVSPropertyOp55
 70
     1
102
RTVSPropertyOp56
 70
     1
102
RTVSPropertyOp57
 70
     1
102
RTVSPost2010Prop28
280
     0
102
RTVSPost2010PropOp28
 70
     1
102
RTVSPost2010Prop29
280
     1
102
RTVSPost2010PropOp29
 70
     1
102
RTVSPost2010Prop30
280
     1
102
RTVSPost2010PropOp30
 70
     1
102
RTVSPost2010Prop31
280
     0
102
RTVSPost2010PropOp31
 70
     1
102
RTVSPost2010Prop32
280
     0
102
RTVSPost2010PropOp32
 70
     1
102
RTVSPost2010Prop33
280
     0
102
RTVSPost2010PropOp33
 70
     1
102
RTVSPost2010Prop34
280
     0
102
RTVSPost2010PropOp34
 70
     1
102
RTVSPost2010Prop35
280
     0
102
RTVSPost2010PropOp35
 70
     1
102
RTVSPost2010Prop36
280
     0
102
RTVSPost2010PropOp36
 70
     1
102
RTVSPost2010Prop37
 90
       50
102
RTVSPost2010PropOp37
 70
     1
102
RTVSPost2010Prop38
140
0.0
102
RTVSPost2010PropOp38
 70
     1
102
RTVSPost2010Prop39
140
1.0
102
RTVSPost2010PropOp39
 70
     1
102
RTVSPost2010Prop40
 90
        0
102
RTVSPost2010PropOp40
 70
     1
102
RTVSPost2010Prop41ColorIndex
 90
       18
102
RTVSPost2010Prop41ColorRGB
 90
        0
102
RTVSPost2010PropOp41
 70
     1
102
RTVSPost2010Prop42
 90
       50
102
RTVSPost2010PropOp42
 70
     1
102
RTVSPost2010Prop43
 90
        3
102
RTVSPost2010PropOp43
 70
     1
102
RTVSPost2010Prop44ColorIndex
 90
        5
102
RTVSPost2010Prop44ColorRGB
 90
      255
102
RTVSPost2010PropOp44
 70
     1
102
RTVSPost2010Prop45
280
     0
102
RTVSPost2010PropOp45
 70
     1
102
RTVSPost2010Prop46
 90
       50
102
RTVSPost2010PropOp46
 70
     1
102
RTVSPost2010Prop47
 90
       50
102
RTVSPost2010PropOp47
 70
     1
102
RTVSPost2010Prop48
 90
       50
102
RTVSPost2010PropOp48
 70
     1
102
RTVSPost2010Prop49
280
     0
102
RTVSPost2010PropOp49
 70
     1
102
RTVSPost2010Prop50
 90
       50
102
RTVSPost2010PropOp50
 70
     1
102
RTVSPost2010Prop51ColorIndex
 90
      256
102
RTVSPost2010Prop51ColorRGB
 90
-16777216
102
RTVSPost2010PropOp51
 70
     0
102
RTVSPost2010Prop52
140
1.0
102
RTVSPost2010PropOp52
 70
     0
102
RTVSPost2010Prop53
 90
        2
102
RTVSPost2010PropOp53
 70
     1
102
RTVSPost2010Prop54
  1
strokes_ogs.tif
102
RTVSPost2010PropOp54
 70
     1
102
RTVSPost2010Prop55
280
     0
102
RTVSPost2010PropOp55
 70
     1
102
RTVSPost2010Prop56
140
1.0
102
RTVSPost2010PropOp56
 70
     1
102
RTVSPost2010Prop57
140
1.0
102
RTVSPost2010PropOp57
 70
     1
  0
XRECORD
  5
2E4
102
{ACAD_REACTORS
330
2E3
102
}
330
2E3
100
AcDbXrecord
280
     1
102
RTVSPropertyOp0
 70
     1
102
RTVSPropertyOp1
 70
     1
102
RTVSPropertyOp2
 70
     1
102
RTVSPropertyOp3
 70
     1
102
RTVSPropertyOp4
 70
     1
102
RTVSPropertyOp5
 70
     1
102
RTVSPropertyOp6
 70
     1
102
RTVSPropertyOp7
 70
     1
102
RTVSPropertyOp8
 70
     1
102
RTVSPropertyOp9
 70
     1
102
RTVSPropertyOp10
 70
     1
102
RTVSPropertyOp11
 70
     1
102
RTVSPropertyOp12
 70
     1
102
RTVSPropertyOp13
 70
     1
102
RTVSPropertyOp14
 70
     1
102
RTVSPropertyOp15
 70
     1
102
RTVSPropertyOp16
 70
     1
102
RTVSPropertyOp17
 70
     1
102
RTVSPropertyOp18
 70
     1
102
RTVSPropertyOp19
 70
     1
102
RTVSPropertyOp20
 70
     1
102
RTVSPropertyOp21
 70
     1
102
RTVSPropertyOp22
 70
     1
102
RTVSPropertyOp23
 70
     1
102
RTVSPropertyOp24
 70
     1
102
RTVSPropertyOp25
 70
     1
102
RTVSPropertyOp26
 70
     1
102
RTVSPropertyOp27
 70
     1
102
RTVSPropertyOp28
 70
     1
102
RTVSPropertyOp29
 70
     1
102
RTVSPropertyOp30
 70
     1
102
RTVSPropertyOp31
 70
     1
102
RTVSPropertyOp32
 70
     1
102
RTVSPropertyOp33
 70
     1
102
RTVSPropertyOp34
 70
     1
102
RTVSPropertyOp35
 70
     1
102
RTVSPropertyOp36
 70
     1
102
RTVSPropertyOp37
 70
     1
102
RTVSPropertyOp38
 70
     1
102
RTVSPropertyOp39
 70
     1
102
RTVSPropertyOp40
 70
     1
102
RTVSPropertyOp41
 70
     1
102
RTVSPropertyOp42
 70
     1
102
RTVSPropertyOp43
 70
     1
102
RTVSPropertyOp44
 70
     1
102
RTVSPropertyOp45
 70
     1
102
RTVSPropertyOp46
 70
     1
102
RTVSPropertyOp47
 70
     1
102
RTVSPropertyOp48
 70
     1
102
RTVSPropertyOp49
 70
     1
102
RTVSPropertyOp50
 70
     1
102
RTVSPropertyOp51
 70
     0
102
RTVSPropertyOp52
 70
     0
102
RTVSPropertyOp53
 70
     1
102
RTVSPropertyOp54
 70
     1
102
RTVSPropertyOp55
 70
     1
102
RTVSPropertyOp56
 70
     1
102
RTVSPropertyOp57
 70
     1
102
RTVSPost2010Prop28
280
     0
102
RTVSPost2010PropOp28
 70
     1
102
RTVSPost2010Prop29
280
     1
102
RTVSPost2010PropOp29
 70
     1
102
RTVSPost2010Prop30
280
     1
102
RTVSPost2010PropOp30
 70
     1
102
RTVSPost2010Prop31
280
     0
102
RTVSPost2010PropOp31
 70
     1
102
RTVSPost2010Prop32
280
     0
102
RTVSPost2010PropOp32
 70
     1
102
RTVSPost2010Prop33
280
     0
102
RTVSPost2010PropOp33
 70
     1
102
RTVSPost2010Prop34
280
     0
102
RTVSPost2010PropOp34
 70
     1
102
RTVSPost2010Prop35
280
     0
102
RTVSPost2010PropOp35
 70
     1
102
RTVSPost2010Prop36
280
     0
102
RTVSPost2010PropOp36
 70
     1
102
RTVSPost2010Prop37
 90
       50
102
RTVSPost2010PropOp37
 70
     1
102
RTVSPost2010Prop38
140
0.0
102
RTVSPost2010PropOp38
 70
     1
102
RTVSPost2010Prop39
140
1.0
102
RTVSPost2010PropOp39
 70
     1
102
RTVSPost2010Prop40
 90
        0
102
RTVSPost2010PropOp40
 70
     1
102
RTVSPost2010Prop41ColorIndex
 90
       18
102
RTVSPost2010Prop41ColorRGB
 90
        0
102
RTVSPost2010PropOp41
 70
     1
102
RTVSPost2010Prop42
 90
       50
102
RTVSPost2010PropOp42
 70
     1
102
RTVSPost2010Prop43
 90
        3
102
RTVSPost2010PropOp43
 70
     1
102
RTVSPost2010Prop44ColorIndex
 90
        5
102
RTVSPost2010Prop44ColorRGB
 90
      255
102
RTVSPost2010PropOp44
 70
     1
102
RTVSPost2010Prop45
280
     0
102
RTVSPost2010PropOp45
 70
     1
102
RTVSPost2010Prop46
 90
       50
102
RTVSPost2010PropOp46
 70
     1
102
RTVSPost2010Prop47
 90
       50
102
RTVSPost2010PropOp47
 70
     1
102
RTVSPost2010Prop48
 90
       50
102
RTVSPost2010PropOp48
 70
     1
102
RTVSPost2010Prop49
280
     0
102
RTVSPost2010PropOp49
 70
     1
102
RTVSPost2010Prop50
 90
       50
102
RTVSPost2010PropOp50
 70
     1
102
RTVSPost2010Prop51ColorIndex
 90
      256
102
RTVSPost2010Prop51ColorRGB
 90
-16777216
102
RTVSPost2010PropOp51
 70
     0
102
RTVSPost2010Prop52
140
1.0
102
RTVSPost2010PropOp52
 70
     0
102
RTVSPost2010Prop53
 90
        2
102
RTVSPost2010PropOp53
 70
     1
102
RTVSPost2010Prop54
  1
strokes_ogs.tif
102
RTVSPost2010PropOp54
 70
     1
102
RTVSPost2010Prop55
280
     0
102
RTVSPost2010PropOp55
 70
     1
102
RTVSPost2010Prop56
140
1.0
102
RTVSPost2010PropOp56
 70
     1
102
RTVSPost2010Prop57
140
1.0
102
RTVSPost2010PropOp57
 70
     1
  0
XRECORD
  5
2EC
102
{ACAD_REACTORS
330
2EB
102
}
330
2EB
100
AcDbXrecord
280
     1
102
RTVSPropertyOp0
 70
     1
102
RTVSPropertyOp1
 70
     1
102
RTVSPropertyOp2
 70
     1
102
RTVSPropertyOp3
 70
     1
102
RTVSPropertyOp4
 70
     1
102
RTVSPropertyOp5
 70
     1
102
RTVSPropertyOp6
 70
     1
102
RTVSPropertyOp7
 70
     1
102
RTVSPropertyOp8
 70
     1
102
RTVSPropertyOp9
 70
     1
102
RTVSPropertyOp10
 70
     1
102
RTVSPropertyOp11
 70
     1
102
RTVSPropertyOp12
 70
     1
102
RTVSPropertyOp13
 70
     1
102
RTVSPropertyOp14
 70
     1
102
RTVSPropertyOp15
 70
     1
102
RTVSPropertyOp16
 70
     1
102
RTVSPropertyOp17
 70
     1
102
RTVSPropertyOp18
 70
     1
102
RTVSPropertyOp19
 70
     1
102
RTVSPropertyOp20
 70
     1
102
RTVSPropertyOp21
 70
     1
102
RTVSPropertyOp22
 70
     1
102
RTVSPropertyOp23
 70
     1
102
RTVSPropertyOp24
 70
     1
102
RTVSPropertyOp25
 70
     1
102
RTVSPropertyOp26
 70
     1
102
RTVSPropertyOp27
 70
     1
102
RTVSPropertyOp28
 70
     1
102
RTVSPropertyOp29
 70
     1
102
RTVSPropertyOp30
 70
     1
102
RTVSPropertyOp31
 70
     1
102
RTVSPropertyOp32
 70
     1
102
RTVSPropertyOp33
 70
     1
102
RTVSPropertyOp34
 70
     1
102
RTVSPropertyOp35
 70
     1
102
RTVSPropertyOp36
 70
     1
102
RTVSPropertyOp37
 70
     1
102
RTVSPropertyOp38
 70
     1
102
RTVSPropertyOp39
 70
     1
102
RTVSPropertyOp40
 70
     1
102
RTVSPropertyOp41
 70
     1
102
RTVSPropertyOp42
 70
     1
102
RTVSPropertyOp43
 70
     1
102
RTVSPropertyOp44
 70
     1
102
RTVSPropertyOp45
 70
     1
102
RTVSPropertyOp46
 70
     1
102
RTVSPropertyOp47
 70
     1
102
RTVSPropertyOp48
 70
     1
102
RTVSPropertyOp49
 70
     1
102
RTVSPropertyOp50
 70
     1
102
RTVSPropertyOp51
 70
     0
102
RTVSPropertyOp52
 70
     0
102
RTVSPropertyOp53
 70
     1
102
RTVSPropertyOp54
 70
     1
102
RTVSPropertyOp55
 70
     1
102
RTVSPropertyOp56
 70
     1
102
RTVSPropertyOp57
 70
     1
102
RTVSPost2010Prop28
280
     0
102
RTVSPost2010PropOp28
 70
     1
102
RTVSPost2010Prop29
280
     1
102
RTVSPost2010PropOp29
 70
     1
102
RTVSPost2010Prop30
280
     1
102
RTVSPost2010PropOp30
 70
     1
102
RTVSPost2010Prop31
280
     0
102
RTVSPost2010PropOp31
 70
     1
102
RTVSPost2010Prop32
280
     0
102
RTVSPost2010PropOp32
 70
     1
102
RTVSPost2010Prop33
280
     0
102
RTVSPost2010PropOp33
 70
     1
102
RTVSPost2010Prop34
280
     0
102
RTVSPost2010PropOp34
 70
     1
102
RTVSPost2010Prop35
280
     0
102
RTVSPost2010PropOp35
 70
     1
102
RTVSPost2010Prop36
280
     0
102
RTVSPost2010PropOp36
 70
     1
102
RTVSPost2010Prop37
 90
       50
102
RTVSPost2010PropOp37
 70
     1
102
RTVSPost2010Prop38
140
0.0
102
RTVSPost2010PropOp38
 70
     1
102
RTVSPost2010Prop39
140
1.0
102
RTVSPost2010PropOp39
 70
     1
102
RTVSPost2010Prop40
 90
        0
102
RTVSPost2010PropOp40
 70
     1
102
RTVSPost2010Prop41ColorIndex
 90
       18
102
RTVSPost2010Prop41ColorRGB
 90
        0
102
RTVSPost2010PropOp41
 70
     1
102
RTVSPost2010Prop42
 90
       50
102
RTVSPost2010PropOp42
 70
     1
102
RTVSPost2010Prop43
 90
        3
102
RTVSPost2010PropOp43
 70
     1
102
RTVSPost2010Prop44ColorIndex
 90
        5
102
RTVSPost2010Prop44ColorRGB
 90
      255
102
RTVSPost2010PropOp44
 70
     1
102
RTVSPost2010Prop45
280
     0
102
RTVSPost2010PropOp45
 70
     1
102
RTVSPost2010Prop46
 90
       50
102
RTVSPost2010PropOp46
 70
     1
102
RTVSPost2010Prop47
 90
       50
102
RTVSPost2010PropOp47
 70
     1
102
RTVSPost2010Prop48
 90
       50
102
RTVSPost2010PropOp48
 70
     1
102
RTVSPost2010Prop49
280
     0
102
RTVSPost2010PropOp49
 70
     1
102
RTVSPost2010Prop50
 90
       50
102
RTVSPost2010PropOp50
 70
     1
102
RTVSPost2010Prop51ColorIndex
 90
      256
102
RTVSPost2010Prop51ColorRGB
 90
-16777216
102
RTVSPost2010PropOp51
 70
     0
102
RTVSPost2010Prop52
140
1.0
102
RTVSPost2010PropOp52
 70
     0
102
RTVSPost2010Prop53
 90
        2
102
RTVSPost2010PropOp53
 70
     1
102
RTVSPost2010Prop54
  1
strokes_ogs.tif
102
RTVSPost2010PropOp54
 70
     1
102
RTVSPost2010Prop55
280
     0
102
RTVSPost2010PropOp55
 70
     1
102
RTVSPost2010Prop56
140
1.0
102
RTVSPost2010PropOp56
 70
     1
102
RTVSPost2010Prop57
140
1.0
102
RTVSPost2010PropOp57
 70
     1
  0
XRECORD
  5
2E0
102
{ACAD_REACTORS
330
2DF
102
}
330
2DF
100
AcDbXrecord
280
     1
102
RTVSPropertyOp0
 70
     1
102
RTVSPropertyOp1
 70
     1
102
RTVSPropertyOp2
 70
     1
102
RTVSPropertyOp3
 70
     1
102
RTVSPropertyOp4
 70
     1
102
RTVSPropertyOp5
 70
     1
102
RTVSPropertyOp6
 70
     1
102
RTVSPropertyOp7
 70
     1
102
RTVSPropertyOp8
 70
     1
102
RTVSPropertyOp9
 70
     1
102
RTVSPropertyOp10
 70
     1
102
RTVSPropertyOp11
 70
     1
102
RTVSPropertyOp12
 70
     1
102
RTVSPropertyOp13
 70
     1
102
RTVSPropertyOp14
 70
     1
102
RTVSPropertyOp15
 70
     1
102
RTVSPropertyOp16
 70
     1
102
RTVSPropertyOp17
 70
     1
102
RTVSPropertyOp18
 70
     1
102
RTVSPropertyOp19
 70
     1
102
RTVSPropertyOp20
 70
     1
102
RTVSPropertyOp21
 70
     1
102
RTVSPropertyOp22
 70
     1
102
RTVSPropertyOp23
 70
     1
102
RTVSPropertyOp24
 70
     1
102
RTVSPropertyOp25
 70
     1
102
RTVSPropertyOp26
 70
     1
102
RTVSPropertyOp27
 70
     1
102
RTVSPropertyOp28
 70
     1
102
RTVSPropertyOp29
 70
     1
102
RTVSPropertyOp30
 70
     1
102
RTVSPropertyOp31
 70
     1
102
RTVSPropertyOp32
 70
     1
102
RTVSPropertyOp33
 70
     1
102
RTVSPropertyOp34
 70
     1
102
RTVSPropertyOp35
 70
     1
102
RTVSPropertyOp36
 70
     1
102
RTVSPropertyOp37
 70
     1
102
RTVSPropertyOp38
 70
     1
102
RTVSPropertyOp39
 70
     1
102
RTVSPropertyOp40
 70
     1
102
RTVSPropertyOp41
 70
     1
102
RTVSPropertyOp42
 70
     1
102
RTVSPropertyOp43
 70
     1
102
RTVSPropertyOp44
 70
     1
102
RTVSPropertyOp45
 70
     1
102
RTVSPropertyOp46
 70
     1
102
RTVSPropertyOp47
 70
     1
102
RTVSPropertyOp48
 70
     1
102
RTVSPropertyOp49
 70
     1
102
RTVSPropertyOp50
 70
     1
102
RTVSPropertyOp51
 70
     0
102
RTVSPropertyOp52
 70
     0
102
RTVSPropertyOp53
 70
     1
102
RTVSPropertyOp54
 70
     1
102
RTVSPropertyOp55
 70
     1
102
RTVSPropertyOp56
 70
     1
102
RTVSPropertyOp57
 70
     1
102
RTVSPost2010Prop28
280
     0
102
RTVSPost2010PropOp28
 70
     1
102
RTVSPost2010Prop29
280
     1
102
RTVSPost2010PropOp29
 70
     1
102
RTVSPost2010Prop30
280
     1
102
RTVSPost2010PropOp30
 70
     1
102
RTVSPost2010Prop31
280
     0
102
RTVSPost2010PropOp31
 70
     1
102
RTVSPost2010Prop32
280
     0
102
RTVSPost2010PropOp32
 70
     1
102
RTVSPost2010Prop33
280
     0
102
RTVSPost2010PropOp33
 70
     1
102
RTVSPost2010Prop34
280
     0
102
RTVSPost2010PropOp34
 70
     1
102
RTVSPost2010Prop35
280
     0
102
RTVSPost2010PropOp35
 70
     1
102
RTVSPost2010Prop36
280
     0
102
RTVSPost2010PropOp36
 70
     1
102
RTVSPost2010Prop37
 90
       50
102
RTVSPost2010PropOp37
 70
     1
102
RTVSPost2010Prop38
140
0.0
102
RTVSPost2010PropOp38
 70
     1
102
RTVSPost2010Prop39
140
1.0
102
RTVSPost2010PropOp39
 70
     1
102
RTVSPost2010Prop40
 90
        0
102
RTVSPost2010PropOp40
 70
     1
102
RTVSPost2010Prop41ColorIndex
 90
       18
102
RTVSPost2010Prop41ColorRGB
 90
        0
102
RTVSPost2010PropOp41
 70
     1
102
RTVSPost2010Prop42
 90
       50
102
RTVSPost2010PropOp42
 70
     1
102
RTVSPost2010Prop43
 90
        3
102
RTVSPost2010PropOp43
 70
     1
102
RTVSPost2010Prop44ColorIndex
 90
        5
102
RTVSPost2010Prop44ColorRGB
 90
      255
102
RTVSPost2010PropOp44
 70
     1
102
RTVSPost2010Prop45
280
     0
102
RTVSPost2010PropOp45
 70
     1
102
RTVSPost2010Prop46
 90
       50
102
RTVSPost2010PropOp46
 70
     1
102
RTVSPost2010Prop47
 90
       50
102
RTVSPost2010PropOp47
 70
     1
102
RTVSPost2010Prop48
 90
       50
102
RTVSPost2010PropOp48
 70
     1
102
RTVSPost2010Prop49
280
     0
102
RTVSPost2010PropOp49
 70
     1
102
RTVSPost2010Prop50
 90
       50
102
RTVSPost2010PropOp50
 70
     1
102
RTVSPost2010Prop51ColorIndex
 90
      256
102
RTVSPost2010Prop51ColorRGB
 90
-16777216
102
RTVSPost2010PropOp51
 70
     0
102
RTVSPost2010Prop52
140
1.0
102
RTVSPost2010PropOp52
 70
     0
102
RTVSPost2010Prop53
 90
        2
102
RTVSPost2010PropOp53
 70
     1
102
RTVSPost2010Prop54
  1
strokes_ogs.tif
102
RTVSPost2010PropOp54
 70
     1
102
RTVSPost2010Prop55
280
     0
102
RTVSPost2010PropOp55
 70
     1
102
RTVSPost2010Prop56
140
1.0
102
RTVSPost2010PropOp56
 70
     1
102
RTVSPost2010Prop57
140
1.0
102
RTVSPost2010PropOp57
 70
     1
  0
XRECORD
  5
2E2
102
{ACAD_REACTORS
330
2E1
102
}
330
2E1
100
AcDbXrecord
280
     1
102
RTVSPropertyOp0
 70
     1
102
RTVSPropertyOp1
 70
     1
102
RTVSPropertyOp2
 70
     1
102
RTVSPropertyOp3
 70
     1
102
RTVSPropertyOp4
 70
     1
102
RTVSPropertyOp5
 70
     1
102
RTVSPropertyOp6
 70
     1
102
RTVSPropertyOp7
 70
     1
102
RTVSPropertyOp8
 70
     1
102
RTVSPropertyOp9
 70
     1
102
RTVSPropertyOp10
 70
     1
102
RTVSPropertyOp11
 70
     1
102
RTVSPropertyOp12
 70
     1
102
RTVSPropertyOp13
 70
     1
102
RTVSPropertyOp14
 70
     1
102
RTVSPropertyOp15
 70
     1
102
RTVSPropertyOp16
 70
     1
102
RTVSPropertyOp17
 70
     1
102
RTVSPropertyOp18
 70
     1
102
RTVSPropertyOp19
 70
     1
102
RTVSPropertyOp20
 70
     1
102
RTVSPropertyOp21
 70
     1
102
RTVSPropertyOp22
 70
     1
102
RTVSPropertyOp23
 70
     1
102
RTVSPropertyOp24
 70
     1
102
RTVSPropertyOp25
 70
     1
102
RTVSPropertyOp26
 70
     1
102
RTVSPropertyOp27
 70
     1
102
RTVSPropertyOp28
 70
     1
102
RTVSPropertyOp29
 70
     1
102
RTVSPropertyOp30
 70
     1
102
RTVSPropertyOp31
 70
     1
102
RTVSPropertyOp32
 70
     1
102
RTVSPropertyOp33
 70
     1
102
RTVSPropertyOp34
 70
     1
102
RTVSPropertyOp35
 70
     1
102
RTVSPropertyOp36
 70
     1
102
RTVSPropertyOp37
 70
     1
102
RTVSPropertyOp38
 70
     1
102
RTVSPropertyOp39
 70
     1
102
RTVSPropertyOp40
 70
     1
102
RTVSPropertyOp41
 70
     1
102
RTVSPropertyOp42
 70
     1
102
RTVSPropertyOp43
 70
     1
102
RTVSPropertyOp44
 70
     1
102
RTVSPropertyOp45
 70
     1
102
RTVSPropertyOp46
 70
     1
102
RTVSPropertyOp47
 70
     1
102
RTVSPropertyOp48
 70
     1
102
RTVSPropertyOp49
 70
     1
102
RTVSPropertyOp50
 70
     1
102
RTVSPropertyOp51
 70
     0
102
RTVSPropertyOp52
 70
     0
102
RTVSPropertyOp53
 70
     1
102
RTVSPropertyOp54
 70
     1
102
RTVSPropertyOp55
 70
     1
102
RTVSPropertyOp56
 70
     1
102
RTVSPropertyOp57
 70
     1
102
RTVSPost2010Prop28
280
     0
102
RTVSPost2010PropOp28
 70
     1
102
RTVSPost2010Prop29
280
     1
102
RTVSPost2010PropOp29
 70
     1
102
RTVSPost2010Prop30
280
     1
102
RTVSPost2010PropOp30
 70
     1
102
RTVSPost2010Prop31
280
     0
102
RTVSPost2010PropOp31
 70
     1
102
RTVSPost2010Prop32
280
     0
102
RTVSPost2010PropOp32
 70
     1
102
RTVSPost2010Prop33
280
     0
102
RTVSPost2010PropOp33
 70
     1
102
RTVSPost2010Prop34
280
     0
102
RTVSPost2010PropOp34
 70
     1
102
RTVSPost2010Prop35
280
     0
102
RTVSPost2010PropOp35
 70
     1
102
RTVSPost2010Prop36
280
     0
102
RTVSPost2010PropOp36
 70
     1
102
RTVSPost2010Prop37
 90
       50
102
RTVSPost2010PropOp37
 70
     1
102
RTVSPost2010Prop38
140
0.0
102
RTVSPost2010PropOp38
 70
     1
102
RTVSPost2010Prop39
140
1.0
102
RTVSPost2010PropOp39
 70
     1
102
RTVSPost2010Prop40
 90
        0
102
RTVSPost2010PropOp40
 70
     1
102
RTVSPost2010Prop41ColorIndex
 90
       18
102
RTVSPost2010Prop41ColorRGB
 90
        0
102
RTVSPost2010PropOp41
 70
     1
102
RTVSPost2010Prop42
 90
       50
102
RTVSPost2010PropOp42
 70
     1
102
RTVSPost2010Prop43
 90
        3
102
RTVSPost2010PropOp43
 70
     1
102
RTVSPost2010Prop44ColorIndex
 90
        5
102
RTVSPost2010Prop44ColorRGB
 90
      255
102
RTVSPost2010PropOp44
 70
     1
102
RTVSPost2010Prop45
280
     0
102
RTVSPost2010PropOp45
 70
     1
102
RTVSPost2010Prop46
 90
       50
102
RTVSPost2010PropOp46
 70
     1
102
RTVSPost2010Prop47
 90
       50
102
RTVSPost2010PropOp47
 70
     1
102
RTVSPost2010Prop48
 90
       50
102
RTVSPost2010PropOp48
 70
     1
102
RTVSPost2010Prop49
280
     0
102
RTVSPost2010PropOp49
 70
     1
102
RTVSPost2010Prop50
 90
       50
102
RTVSPost2010PropOp50
 70
     1
102
RTVSPost2010Prop51ColorIndex
 90
      256
102
RTVSPost2010Prop51ColorRGB
 90
-16777216
102
RTVSPost2010PropOp51
 70
     0
102
RTVSPost2010Prop52
140
1.0
102
RTVSPost2010PropOp52
 70
     0
102
RTVSPost2010Prop53
 90
        2
102
RTVSPost2010PropOp53
 70
     1
102
RTVSPost2010Prop54
  1
strokes_ogs.tif
102
RTVSPost2010PropOp54
 70
     1
102
RTVSPost2010Prop55
280
     0
102
RTVSPost2010PropOp55
 70
     1
102
RTVSPost2010Prop56
140
1.0
102
RTVSPost2010PropOp56
 70
     1
102
RTVSPost2010Prop57
140
1.0
102
RTVSPost2010PropOp57
 70
     1
  0
XRECORD
  5
2F2
102
{ACAD_REACTORS
330
2F1
102
}
330
2F1
100
AcDbXrecord
280
     1
102
RTVSPropertyOp0
 70
     0
102
RTVSPropertyOp1
 70
     0
102
RTVSPropertyOp2
 70
     0
102
RTVSPropertyOp3
 70
     0
102
RTVSPropertyOp4
 70
     0
102
RTVSPropertyOp5
 70
     0
102
RTVSPropertyOp6
 70
     0
102
RTVSPropertyOp7
 70
     0
102
RTVSPropertyOp8
 70
     0
102
RTVSPropertyOp9
 70
     0
102
RTVSPropertyOp10
 70
     0
102
RTVSPropertyOp11
 70
     0
102
RTVSPropertyOp12
 70
     0
102
RTVSPropertyOp13
 70
     0
102
RTVSPropertyOp14
 70
     2
102
RTVSPropertyOp15
 70
     0
102
RTVSPropertyOp16
 70
     0
102
RTVSPropertyOp17
 70
     0
102
RTVSPropertyOp18
 70
     0
102
RTVSPropertyOp19
 70
     0
102
RTVSPropertyOp20
 70
     0
102
RTVSPropertyOp21
 70
     0
102
RTVSPropertyOp22
 70
     0
102
RTVSPropertyOp23
 70
     0
102
RTVSPropertyOp24
 70
     0
102
RTVSPropertyOp25
 70
     0
102
RTVSPropertyOp26
 70
     0
102
RTVSPropertyOp27
 70
     0
102
RTVSPropertyOp28
 70
     0
102
RTVSPropertyOp29
 70
     0
102
RTVSPropertyOp30
 70
     0
102
RTVSPropertyOp31
 70
     0
102
RTVSPropertyOp32
 70
     0
102
RTVSPropertyOp33
 70
     0
102
RTVSPropertyOp34
 70
     0
102
RTVSPropertyOp35
 70
     0
102
RTVSPropertyOp36
 70
     0
102
RTVSPropertyOp37
 70
     0
102
RTVSPropertyOp38
 70
     0
102
RTVSPropertyOp39
 70
     0
102
RTVSPropertyOp40
 70
     0
102
RTVSPropertyOp41
 70
     0
102
RTVSPropertyOp42
 70
     0
102
RTVSPropertyOp43
 70
     0
102
RTVSPropertyOp44
 70
     0
102
RTVSPropertyOp45
 70
     0
102
RTVSPropertyOp46
 70
     0
102
RTVSPropertyOp47
 70
     0
102
RTVSPropertyOp48
 70
     0
102
RTVSPropertyOp49
 70
     0
102
RTVSPropertyOp50
 70
     0
102
RTVSPropertyOp51
 70
     0
102
RTVSPropertyOp52
 70
     0
102
RTVSPropertyOp53
 70
     0
102
RTVSPropertyOp54
 70
     0
102
RTVSPropertyOp55
 70
     0
102
RTVSPropertyOp56
 70
     0
102
RTVSPropertyOp57
 70
     0
102
RTVSPost2010Prop28
280
     0
102
RTVSPost2010PropOp28
 70
     0
102
RTVSPost2010Prop29
280
     1
102
RTVSPost2010PropOp29
 70
     0
102
RTVSPost2010Prop30
280
     1
102
RTVSPost2010PropOp30
 70
     0
102
RTVSPost2010Prop31
280
     0
102
RTVSPost2010PropOp31
 70
     0
102
RTVSPost2010Prop32
280
     0
102
RTVSPost2010PropOp32
 70
     0
102
RTVSPost2010Prop33
280
     0
102
RTVSPost2010PropOp33
 70
     0
102
RTVSPost2010Prop34
280
     0
102
RTVSPost2010PropOp34
 70
     0
102
RTVSPost2010Prop35
280
     0
102
RTVSPost2010PropOp35
 70
     0
102
RTVSPost2010Prop36
280
     0
102
RTVSPost2010PropOp36
 70
     0
102
RTVSPost2010Prop37
 90
       50
102
RTVSPost2010PropOp37
 70
     0
102
RTVSPost2010Prop38
140
0.0
102
RTVSPost2010PropOp38
 70
     0
102
RTVSPost2010Prop39
140
1.0
102
RTVSPost2010PropOp39
 70
     0
102
RTVSPost2010Prop40
 90
        0
102
RTVSPost2010PropOp40
 70
     0
102
RTVSPost2010Prop41ColorIndex
 90
       18
102
RTVSPost2010Prop41ColorRGB
 90
        0
102
RTVSPost2010PropOp41
 70
     0
102
RTVSPost2010Prop42
 90
       50
102
RTVSPost2010PropOp42
 70
     0
102
RTVSPost2010Prop43
 90
        3
102
RTVSPost2010PropOp43
 70
     0
102
RTVSPost2010Prop44ColorIndex
 90
        5
102
RTVSPost2010Prop44ColorRGB
 90
      255
102
RTVSPost2010PropOp44
 70
     0
102
RTVSPost2010Prop45
280
     0
102
RTVSPost2010PropOp45
 70
     0
102
RTVSPost2010Prop46
 90
       50
102
RTVSPost2010PropOp46
 70
     0
102
RTVSPost2010Prop47
 90
       50
102
RTVSPost2010PropOp47
 70
     0
102
RTVSPost2010Prop48
 90
       50
102
RTVSPost2010PropOp48
 70
     0
102
RTVSPost2010Prop49
280
     0
102
RTVSPost2010PropOp49
 70
     0
102
RTVSPost2010Prop50
 90
       50
102
RTVSPost2010PropOp50
 70
     0
102
RTVSPost2010Prop51ColorIndex
 90
      256
102
RTVSPost2010Prop51ColorRGB
 90
-16777216
102
RTVSPost2010PropOp51
 70
     0
102
RTVSPost2010Prop52
140
1.0
102
RTVSPost2010PropOp52
 70
     0
102
RTVSPost2010Prop53
 90
        2
102
RTVSPost2010PropOp53
 70
     0
102
RTVSPost2010Prop54
  1
strokes_ogs.tif
102
RTVSPost2010PropOp54
 70
     0
102
RTVSPost2010Prop55
280
     0
102
RTVSPost2010PropOp55
 70
     0
102
RTVSPost2010Prop56
140
1.0
102
RTVSPost2010PropOp56
 70
     0
102
RTVSPost2010Prop57
140
1.0
102
RTVSPost2010PropOp57
 70
     0
  0
XRECORD
  5
2EA
102
{ACAD_REACTORS
330
2E9
102
}
330
2E9
100
AcDbXrecord
280
     1
102
RTVSPropertyOp0
 70
     1
102
RTVSPropertyOp1
 70
     1
102
RTVSPropertyOp2
 70
     1
102
RTVSPropertyOp3
 70
     1
102
RTVSPropertyOp4
 70
     1
102
RTVSPropertyOp5
 70
     1
102
RTVSPropertyOp6
 70
     1
102
RTVSPropertyOp7
 70
     1
102
RTVSPropertyOp8
 70
     1
102
RTVSPropertyOp9
 70
     1
102
RTVSPropertyOp10
 70
     1
102
RTVSPropertyOp11
 70
     1
102
RTVSPropertyOp12
 70
     1
102
RTVSPropertyOp13
 70
     1
102
RTVSPropertyOp14
 70
     1
102
RTVSPropertyOp15
 70
     1
102
RTVSPropertyOp16
 70
     1
102
RTVSPropertyOp17
 70
     1
102
RTVSPropertyOp18
 70
     1
102
RTVSPropertyOp19
 70
     1
102
RTVSPropertyOp20
 70
     1
102
RTVSPropertyOp21
 70
     1
102
RTVSPropertyOp22
 70
     1
102
RTVSPropertyOp23
 70
     1
102
RTVSPropertyOp24
 70
     1
102
RTVSPropertyOp25
 70
     1
102
RTVSPropertyOp26
 70
     1
102
RTVSPropertyOp27
 70
     1
102
RTVSPropertyOp28
 70
     1
102
RTVSPropertyOp29
 70
     1
102
RTVSPropertyOp30
 70
     1
102
RTVSPropertyOp31
 70
     1
102
RTVSPropertyOp32
 70
     1
102
RTVSPropertyOp33
 70
     1
102
RTVSPropertyOp34
 70
     1
102
RTVSPropertyOp35
 70
     1
102
RTVSPropertyOp36
 70
     1
102
RTVSPropertyOp37
 70
     1
102
RTVSPropertyOp38
 70
     1
102
RTVSPropertyOp39
 70
     1
102
RTVSPropertyOp40
 70
     1
102
RTVSPropertyOp41
 70
     1
102
RTVSPropertyOp42
 70
     1
102
RTVSPropertyOp43
 70
     1
102
RTVSPropertyOp44
 70
     1
102
RTVSPropertyOp45
 70
     1
102
RTVSPropertyOp46
 70
     1
102
RTVSPropertyOp47
 70
     1
102
RTVSPropertyOp48
 70
     1
102
RTVSPropertyOp49
 70
     1
102
RTVSPropertyOp50
 70
     1
102
RTVSPropertyOp51
 70
     0
102
RTVSPropertyOp52
 70
     0
102
RTVSPropertyOp53
 70
     1
102
RTVSPropertyOp54
 70
     1
102
RTVSPropertyOp55
 70
     1
102
RTVSPropertyOp56
 70
     1
102
RTVSPropertyOp57
 70
     1
102
RTVSPost2010Prop28
280
     0
102
RTVSPost2010PropOp28
 70
     1
102
RTVSPost2010Prop29
280
     1
102
RTVSPost2010PropOp29
 70
     1
102
RTVSPost2010Prop30
280
     1
102
RTVSPost2010PropOp30
 70
     1
102
RTVSPost2010Prop31
280
     0
102
RTVSPost2010PropOp31
 70
     1
102
RTVSPost2010Prop32
280
     0
102
RTVSPost2010PropOp32
 70
     1
102
RTVSPost2010Prop33
280
     0
102
RTVSPost2010PropOp33
 70
     1
102
RTVSPost2010Prop34
280
     0
102
RTVSPost2010PropOp34
 70
     1
102
RTVSPost2010Prop35
280
     0
102
RTVSPost2010PropOp35
 70
     1
102
RTVSPost2010Prop36
280
     0
102
RTVSPost2010PropOp36
 70
     1
102
RTVSPost2010Prop37
 90
       50
102
RTVSPost2010PropOp37
 70
     1
102
RTVSPost2010Prop38
140
0.0
102
RTVSPost2010PropOp38
 70
     1
102
RTVSPost2010Prop39
140
1.0
102
RTVSPost2010PropOp39
 70
     1
102
RTVSPost2010Prop40
 90
        0
102
RTVSPost2010PropOp40
 70
     1
102
RTVSPost2010Prop41ColorIndex
 90
       18
102
RTVSPost2010Prop41ColorRGB
 90
        0
102
RTVSPost2010PropOp41
 70
     1
102
RTVSPost2010Prop42
 90
       50
102
RTVSPost2010PropOp42
 70
     1
102
RTVSPost2010Prop43
 90
        3
102
RTVSPost2010PropOp43
 70
     1
102
RTVSPost2010Prop44ColorIndex
 90
        5
102
RTVSPost2010Prop44ColorRGB
 90
      255
102
RTVSPost2010PropOp44
 70
     1
102
RTVSPost2010Prop45
280
     0
102
RTVSPost2010PropOp45
 70
     1
102
RTVSPost2010Prop46
 90
       50
102
RTVSPost2010PropOp46
 70
     1
102
RTVSPost2010Prop47
 90
       50
102
RTVSPost2010PropOp47
 70
     1
102
RTVSPost2010Prop48
 90
       50
102
RTVSPost2010PropOp48
 70
     1
102
RTVSPost2010Prop49
280
     0
102
RTVSPost2010PropOp49
 70
     1
102
RTVSPost2010Prop50
 90
       50
102
RTVSPost2010PropOp50
 70
     1
102
RTVSPost2010Prop51ColorIndex
 90
      256
102
RTVSPost2010Prop51ColorRGB
 90
-16777216
102
RTVSPost2010PropOp51
 70
     0
102
RTVSPost2010Prop52
140
1.0
102
RTVSPost2010PropOp52
 70
     0
102
RTVSPost2010Prop53
 90
        2
102
RTVSPost2010PropOp53
 70
     1
102
RTVSPost2010Prop54
  1
strokes_ogs.tif
102
RTVSPost2010PropOp54
 70
     1
102
RTVSPost2010Prop55
280
     0
102
RTVSPost2010PropOp55
 70
     1
102
RTVSPost2010Prop56
140
1.0
102
RTVSPost2010PropOp56
 70
     1
102
RTVSPost2010Prop57
140
1.0
102
RTVSPost2010PropOp57
 70
     1
  0
XRECORD
  5
2CE
102
{ACAD_REACTORS
330
2CD
102
}
330
2CD
100
AcDbXrecord
280
     1
102
RTVSPropertyOp0
 70
     1
102
RTVSPropertyOp1
 70
     1
102
RTVSPropertyOp2
 70
     1
102
RTVSPropertyOp3
 70
     1
102
RTVSPropertyOp4
 70
     1
102
RTVSPropertyOp5
 70
     1
102
RTVSPropertyOp6
 70
     1
102
RTVSPropertyOp7
 70
     1
102
RTVSPropertyOp8
 70
     1
102
RTVSPropertyOp9
 70
     1
102
RTVSPropertyOp10
 70
     1
102
RTVSPropertyOp11
 70
     1
102
RTVSPropertyOp12
 70
     1
102
RTVSPropertyOp13
 70
     1
102
RTVSPropertyOp14
 70
     1
102
RTVSPropertyOp15
 70
     1
102
RTVSPropertyOp16
 70
     1
102
RTVSPropertyOp17
 70
     1
102
RTVSPropertyOp18
 70
     1
102
RTVSPropertyOp19
 70
     1
102
RTVSPropertyOp20
 70
     1
102
RTVSPropertyOp21
 70
     1
102
RTVSPropertyOp22
 70
     1
102
RTVSPropertyOp23
 70
     1
102
RTVSPropertyOp24
 70
     1
102
RTVSPropertyOp25
 70
     1
102
RTVSPropertyOp26
 70
     1
102
RTVSPropertyOp27
 70
     1
102
RTVSPropertyOp28
 70
     1
102
RTVSPropertyOp29
 70
     1
102
RTVSPropertyOp30
 70
     1
102
RTVSPropertyOp31
 70
     1
102
RTVSPropertyOp32
 70
     1
102
RTVSPropertyOp33
 70
     1
102
RTVSPropertyOp34
 70
     1
102
RTVSPropertyOp35
 70
     1
102
RTVSPropertyOp36
 70
     1
102
RTVSPropertyOp37
 70
     1
102
RTVSPropertyOp38
 70
     1
102
RTVSPropertyOp39
 70
     1
102
RTVSPropertyOp40
 70
     1
102
RTVSPropertyOp41
 70
     1
102
RTVSPropertyOp42
 70
     1
102
RTVSPropertyOp43
 70
     1
102
RTVSPropertyOp44
 70
     1
102
RTVSPropertyOp45
 70
     1
102
RTVSPropertyOp46
 70
     1
102
RTVSPropertyOp47
 70
     1
102
RTVSPropertyOp48
 70
     1
102
RTVSPropertyOp49
 70
     1
102
RTVSPropertyOp50
 70
     1
102
RTVSPropertyOp51
 70
     0
102
RTVSPropertyOp52
 70
     0
102
RTVSPropertyOp53
 70
     1
102
RTVSPropertyOp54
 70
     1
102
RTVSPropertyOp55
 70
     1
102
RTVSPropertyOp56
 70
     1
102
RTVSPropertyOp57
 70
     1
102
RTVSPost2010Prop28
280
     0
102
RTVSPost2010PropOp28
 70
     1
102
RTVSPost2010Prop29
280
     1
102
RTVSPost2010PropOp29
 70
     1
102
RTVSPost2010Prop30
280
     1
102
RTVSPost2010PropOp30
 70
     1
102
RTVSPost2010Prop31
280
     0
102
RTVSPost2010PropOp31
 70
     1
102
RTVSPost2010Prop32
280
     0
102
RTVSPost2010PropOp32
 70
     1
102
RTVSPost2010Prop33
280
     0
102
RTVSPost2010PropOp33
 70
     1
102
RTVSPost2010Prop34
280
     0
102
RTVSPost2010PropOp34
 70
     1
102
RTVSPost2010Prop35
280
     0
102
RTVSPost2010PropOp35
 70
     1
102
RTVSPost2010Prop36
280
     0
102
RTVSPost2010PropOp36
 70
     1
102
RTVSPost2010Prop37
 90
       50
102
RTVSPost2010PropOp37
 70
     1
102
RTVSPost2010Prop38
140
0.0
102
RTVSPost2010PropOp38
 70
     1
102
RTVSPost2010Prop39
140
1.0
102
RTVSPost2010PropOp39
 70
     1
102
RTVSPost2010Prop40
 90
        0
102
RTVSPost2010PropOp40
 70
     1
102
RTVSPost2010Prop41ColorIndex
 90
       18
102
RTVSPost2010Prop41ColorRGB
 90
        0
102
RTVSPost2010PropOp41
 70
     1
102
RTVSPost2010Prop42
 90
       50
102
RTVSPost2010PropOp42
 70
     1
102
RTVSPost2010Prop43
 90
        3
102
RTVSPost2010PropOp43
 70
     1
102
RTVSPost2010Prop44ColorIndex
 90
        5
102
RTVSPost2010Prop44ColorRGB
 90
      255
102
RTVSPost2010PropOp44
 70
     1
102
RTVSPost2010Prop45
280
     0
102
RTVSPost2010PropOp45
 70
     1
102
RTVSPost2010Prop46
 90
       50
102
RTVSPost2010PropOp46
 70
     1
102
RTVSPost2010Prop47
 90
       50
102
RTVSPost2010PropOp47
 70
     1
102
RTVSPost2010Prop48
 90
       50
102
RTVSPost2010PropOp48
 70
     1
102
RTVSPost2010Prop49
280
     0
102
RTVSPost2010PropOp49
 70
     1
102
RTVSPost2010Prop50
 90
       50
102
RTVSPost2010PropOp50
 70
     1
102
RTVSPost2010Prop51ColorIndex
 90
      256
102
RTVSPost2010Prop51ColorRGB
 90
-16777216
102
RTVSPost2010PropOp51
 70
     0
102
RTVSPost2010Prop52
140
1.0
102
RTVSPost2010PropOp52
 70
     0
102
RTVSPost2010Prop53
 90
        2
102
RTVSPost2010PropOp53
 70
     1
102
RTVSPost2010Prop54
  1
strokes_ogs.tif
102
RTVSPost2010PropOp54
 70
     1
102
RTVSPost2010Prop55
280
     0
102
RTVSPost2010PropOp55
 70
     1
102
RTVSPost2010Prop56
140
1.0
102
RTVSPost2010PropOp56
 70
     1
102
RTVSPost2010Prop57
140
1.0
102
RTVSPost2010PropOp57
 70
     1
  0
XRECORD
  5
2D0
102
{ACAD_REACTORS
330
2CF
102
}
330
2CF
100
AcDbXrecord
280
     1
102
RTVSPropertyOp0
 70
     1
102
RTVSPropertyOp1
 70
     1
102
RTVSPropertyOp2
 70
     1
102
RTVSPropertyOp3
 70
     1
102
RTVSPropertyOp4
 70
     1
102
RTVSPropertyOp5
 70
     1
102
RTVSPropertyOp6
 70
     1
102
RTVSPropertyOp7
 70
     1
102
RTVSPropertyOp8
 70
     1
102
RTVSPropertyOp9
 70
     1
102
RTVSPropertyOp10
 70
     1
102
RTVSPropertyOp11
 70
     1
102
RTVSPropertyOp12
 70
     1
102
RTVSPropertyOp13
 70
     1
102
RTVSPropertyOp14
 70
     1
102
RTVSPropertyOp15
 70
     1
102
RTVSPropertyOp16
 70
     1
102
RTVSPropertyOp17
 70
     1
102
RTVSPropertyOp18
 70
     1
102
RTVSPropertyOp19
 70
     1
102
RTVSPropertyOp20
 70
     1
102
RTVSPropertyOp21
 70
     1
102
RTVSPropertyOp22
 70
     1
102
RTVSPropertyOp23
 70
     1
102
RTVSPropertyOp24
 70
     1
102
RTVSPropertyOp25
 70
     1
102
RTVSPropertyOp26
 70
     1
102
RTVSPropertyOp27
 70
     1
102
RTVSPropertyOp28
 70
     1
102
RTVSPropertyOp29
 70
     1
102
RTVSPropertyOp30
 70
     1
102
RTVSPropertyOp31
 70
     1
102
RTVSPropertyOp32
 70
     1
102
RTVSPropertyOp33
 70
     1
102
RTVSPropertyOp34
 70
     1
102
RTVSPropertyOp35
 70
     1
102
RTVSPropertyOp36
 70
     1
102
RTVSPropertyOp37
 70
     1
102
RTVSPropertyOp38
 70
     1
102
RTVSPropertyOp39
 70
     1
102
RTVSPropertyOp40
 70
     1
102
RTVSPropertyOp41
 70
     1
102
RTVSPropertyOp42
 70
     1
102
RTVSPropertyOp43
 70
     1
102
RTVSPropertyOp44
 70
     1
102
RTVSPropertyOp45
 70
     1
102
RTVSPropertyOp46
 70
     1
102
RTVSPropertyOp47
 70
     1
102
RTVSPropertyOp48
 70
     1
102
RTVSPropertyOp49
 70
     1
102
RTVSPropertyOp50
 70
     1
102
RTVSPropertyOp51
 70
     0
102
RTVSPropertyOp52
 70
     0
102
RTVSPropertyOp53
 70
     1
102
RTVSPropertyOp54
 70
     1
102
RTVSPropertyOp55
 70
     1
102
RTVSPropertyOp56
 70
     1
102
RTVSPropertyOp57
 70
     1
102
RTVSPost2010Prop28
280
     0
102
RTVSPost2010PropOp28
 70
     1
102
RTVSPost2010Prop29
280
     1
102
RTVSPost2010PropOp29
 70
     1
102
RTVSPost2010Prop30
280
     1
102
RTVSPost2010PropOp30
 70
     1
102
RTVSPost2010Prop31
280
     0
102
RTVSPost2010PropOp31
 70
     1
102
RTVSPost2010Prop32
280
     0
102
RTVSPost2010PropOp32
 70
     1
102
RTVSPost2010Prop33
280
     0
102
RTVSPost2010PropOp33
 70
     1
102
RTVSPost2010Prop34
280
     0
102
RTVSPost2010PropOp34
 70
     1
102
RTVSPost2010Prop35
280
     0
102
RTVSPost2010PropOp35
 70
     1
102
RTVSPost2010Prop36
280
     0
102
RTVSPost2010PropOp36
 70
     1
102
RTVSPost2010Prop37
 90
       50
102
RTVSPost2010PropOp37
 70
     1
102
RTVSPost2010Prop38
140
0.0
102
RTVSPost2010PropOp38
 70
     1
102
RTVSPost2010Prop39
140
1.0
102
RTVSPost2010PropOp39
 70
     1
102
RTVSPost2010Prop40
 90
        0
102
RTVSPost2010PropOp40
 70
     1
102
RTVSPost2010Prop41ColorIndex
 90
       18
102
RTVSPost2010Prop41ColorRGB
 90
        0
102
RTVSPost2010PropOp41
 70
     1
102
RTVSPost2010Prop42
 90
       50
102
RTVSPost2010PropOp42
 70
     1
102
RTVSPost2010Prop43
 90
        3
102
RTVSPost2010PropOp43
 70
     1
102
RTVSPost2010Prop44ColorIndex
 90
        5
102
RTVSPost2010Prop44ColorRGB
 90
      255
102
RTVSPost2010PropOp44
 70
     1
102
RTVSPost2010Prop45
280
     0
102
RTVSPost2010PropOp45
 70
     1
102
RTVSPost2010Prop46
 90
       50
102
RTVSPost2010PropOp46
 70
     1
102
RTVSPost2010Prop47
 90
       50
102
RTVSPost2010PropOp47
 70
     1
102
RTVSPost2010Prop48
 90
       50
102
RTVSPost2010PropOp48
 70
     1
102
RTVSPost2010Prop49
280
     0
102
RTVSPost2010PropOp49
 70
     1
102
RTVSPost2010Prop50
 90
       50
102
RTVSPost2010PropOp50
 70
     1
102
RTVSPost2010Prop51ColorIndex
 90
      256
102
RTVSPost2010Prop51ColorRGB
 90
-16777216
102
RTVSPost2010PropOp51
 70
     0
102
RTVSPost2010Prop52
140
1.0
102
RTVSPost2010PropOp52
 70
     0
102
RTVSPost2010Prop53
 90
        2
102
RTVSPost2010PropOp53
 70
     1
102
RTVSPost2010Prop54
  1
strokes_ogs.tif
102
RTVSPost2010PropOp54
 70
     1
102
RTVSPost2010Prop55
280
     0
102
RTVSPost2010PropOp55
 70
     1
102
RTVSPost2010Prop56
140
1.0
102
RTVSPost2010PropOp56
 70
     1
102
RTVSPost2010Prop57
140
1.0
102
RTVSPost2010PropOp57
 70
     1
  0
XRECORD
  5
2D2
102
{ACAD_REACTORS
330
2D1
102
}
330
2D1
100
AcDbXrecord
280
     1
102
RTVSPropertyOp0
 70
     1
102
RTVSPropertyOp1
 70
     1
102
RTVSPropertyOp2
 70
     1
102
RTVSPropertyOp3
 70
     1
102
RTVSPropertyOp4
 70
     1
102
RTVSPropertyOp5
 70
     1
102
RTVSPropertyOp6
 70
     1
102
RTVSPropertyOp7
 70
     1
102
RTVSPropertyOp8
 70
     1
102
RTVSPropertyOp9
 70
     1
102
RTVSPropertyOp10
 70
     1
102
RTVSPropertyOp11
 70
     1
102
RTVSPropertyOp12
 70
     1
102
RTVSPropertyOp13
 70
     1
102
RTVSPropertyOp14
 70
     1
102
RTVSPropertyOp15
 70
     1
102
RTVSPropertyOp16
 70
     1
102
RTVSPropertyOp17
 70
     1
102
RTVSPropertyOp18
 70
     1
102
RTVSPropertyOp19
 70
     1
102
RTVSPropertyOp20
 70
     1
102
RTVSPropertyOp21
 70
     1
102
RTVSPropertyOp22
 70
     1
102
RTVSPropertyOp23
 70
     1
102
RTVSPropertyOp24
 70
     1
102
RTVSPropertyOp25
 70
     1
102
RTVSPropertyOp26
 70
     1
102
RTVSPropertyOp27
 70
     1
102
RTVSPropertyOp28
 70
     1
102
RTVSPropertyOp29
 70
     1
102
RTVSPropertyOp30
 70
     1
102
RTVSPropertyOp31
 70
     1
102
RTVSPropertyOp32
 70
     1
102
RTVSPropertyOp33
 70
     1
102
RTVSPropertyOp34
 70
     1
102
RTVSPropertyOp35
 70
     1
102
RTVSPropertyOp36
 70
     1
102
RTVSPropertyOp37
 70
     1
102
RTVSPropertyOp38
 70
     1
102
RTVSPropertyOp39
 70
     1
102
RTVSPropertyOp40
 70
     1
102
RTVSPropertyOp41
 70
     1
102
RTVSPropertyOp42
 70
     1
102
RTVSPropertyOp43
 70
     1
102
RTVSPropertyOp44
 70
     1
102
RTVSPropertyOp45
 70
     1
102
RTVSPropertyOp46
 70
     1
102
RTVSPropertyOp47
 70
     1
102
RTVSPropertyOp48
 70
     1
102
RTVSPropertyOp49
 70
     1
102
RTVSPropertyOp50
 70
     1
102
RTVSPropertyOp51
 70
     0
102
RTVSPropertyOp52
 70
     0
102
RTVSPropertyOp53
 70
     1
102
RTVSPropertyOp54
 70
     1
102
RTVSPropertyOp55
 70
     1
102
RTVSPropertyOp56
 70
     1
102
RTVSPropertyOp57
 70
     1
102
RTVSPost2010Prop28
280
     0
102
RTVSPost2010PropOp28
 70
     1
102
RTVSPost2010Prop29
280
     1
102
RTVSPost2010PropOp29
 70
     1
102
RTVSPost2010Prop30
280
     1
102
RTVSPost2010PropOp30
 70
     1
102
RTVSPost2010Prop31
280
     0
102
RTVSPost2010PropOp31
 70
     1
102
RTVSPost2010Prop32
280
     0
102
RTVSPost2010PropOp32
 70
     1
102
RTVSPost2010Prop33
280
     0
102
RTVSPost2010PropOp33
 70
     1
102
RTVSPost2010Prop34
280
     0
102
RTVSPost2010PropOp34
 70
     1
102
RTVSPost2010Prop35
280
     0
102
RTVSPost2010PropOp35
 70
     1
102
RTVSPost2010Prop36
280
     0
102
RTVSPost2010PropOp36
 70
     1
102
RTVSPost2010Prop37
 90
       50
102
RTVSPost2010PropOp37
 70
     1
102
RTVSPost2010Prop38
140
0.0
102
RTVSPost2010PropOp38
 70
     1
102
RTVSPost2010Prop39
140
1.0
102
RTVSPost2010PropOp39
 70
     1
102
RTVSPost2010Prop40
 90
        0
102
RTVSPost2010PropOp40
 70
     1
102
RTVSPost2010Prop41ColorIndex
 90
       18
102
RTVSPost2010Prop41ColorRGB
 90
        0
102
RTVSPost2010PropOp41
 70
     1
102
RTVSPost2010Prop42
 90
       50
102
RTVSPost2010PropOp42
 70
     1
102
RTVSPost2010Prop43
 90
        3
102
RTVSPost2010PropOp43
 70
     1
102
RTVSPost2010Prop44ColorIndex
 90
        5
102
RTVSPost2010Prop44ColorRGB
 90
      255
102
RTVSPost2010PropOp44
 70
     1
102
RTVSPost2010Prop45
280
     0
102
RTVSPost2010PropOp45
 70
     1
102
RTVSPost2010Prop46
 90
       50
102
RTVSPost2010PropOp46
 70
     1
102
RTVSPost2010Prop47
 90
       50
102
RTVSPost2010PropOp47
 70
     1
102
RTVSPost2010Prop48
 90
       50
102
RTVSPost2010PropOp48
 70
     1
102
RTVSPost2010Prop49
280
     0
102
RTVSPost2010PropOp49
 70
     1
102
RTVSPost2010Prop50
 90
       50
102
RTVSPost2010PropOp50
 70
     1
102
RTVSPost2010Prop51ColorIndex
 90
      256
102
RTVSPost2010Prop51ColorRGB
 90
-16777216
102
RTVSPost2010PropOp51
 70
     0
102
RTVSPost2010Prop52
140
1.0
102
RTVSPost2010PropOp52
 70
     0
102
RTVSPost2010Prop53
 90
        2
102
RTVSPost2010PropOp53
 70
     1
102
RTVSPost2010Prop54
  1
strokes_ogs.tif
102
RTVSPost2010PropOp54
 70
     1
102
RTVSPost2010Prop55
280
     0
102
RTVSPost2010PropOp55
 70
     1
102
RTVSPost2010Prop56
140
1.0
102
RTVSPost2010PropOp56
 70
     1
102
RTVSPost2010Prop57
140
1.0
102
RTVSPost2010PropOp57
 70
     1
  0
XRECORD
  5
2D4
102
{ACAD_REACTORS
330
2D3
102
}
330
2D3
100
AcDbXrecord
280
     1
102
RTVSPropertyOp0
 70
     1
102
RTVSPropertyOp1
 70
     1
102
RTVSPropertyOp2
 70
     1
102
RTVSPropertyOp3
 70
     1
102
RTVSPropertyOp4
 70
     1
102
RTVSPropertyOp5
 70
     1
102
RTVSPropertyOp6
 70
     1
102
RTVSPropertyOp7
 70
     1
102
RTVSPropertyOp8
 70
     1
102
RTVSPropertyOp9
 70
     1
102
RTVSPropertyOp10
 70
     1
102
RTVSPropertyOp11
 70
     1
102
RTVSPropertyOp12
 70
     1
102
RTVSPropertyOp13
 70
     1
102
RTVSPropertyOp14
 70
     1
102
RTVSPropertyOp15
 70
     1
102
RTVSPropertyOp16
 70
     1
102
RTVSPropertyOp17
 70
     1
102
RTVSPropertyOp18
 70
     1
102
RTVSPropertyOp19
 70
     1
102
RTVSPropertyOp20
 70
     1
102
RTVSPropertyOp21
 70
     1
102
RTVSPropertyOp22
 70
     1
102
RTVSPropertyOp23
 70
     1
102
RTVSPropertyOp24
 70
     1
102
RTVSPropertyOp25
 70
     1
102
RTVSPropertyOp26
 70
     1
102
RTVSPropertyOp27
 70
     1
102
RTVSPropertyOp28
 70
     1
102
RTVSPropertyOp29
 70
     1
102
RTVSPropertyOp30
 70
     1
102
RTVSPropertyOp31
 70
     1
102
RTVSPropertyOp32
 70
     1
102
RTVSPropertyOp33
 70
     1
102
RTVSPropertyOp34
 70
     1
102
RTVSPropertyOp35
 70
     1
102
RTVSPropertyOp36
 70
     1
102
RTVSPropertyOp37
 70
     1
102
RTVSPropertyOp38
 70
     1
102
RTVSPropertyOp39
 70
     1
102
RTVSPropertyOp40
 70
     1
102
RTVSPropertyOp41
 70
     1
102
RTVSPropertyOp42
 70
     1
102
RTVSPropertyOp43
 70
     1
102
RTVSPropertyOp44
 70
     1
102
RTVSPropertyOp45
 70
     1
102
RTVSPropertyOp46
 70
     1
102
RTVSPropertyOp47
 70
     1
102
RTVSPropertyOp48
 70
     1
102
RTVSPropertyOp49
 70
     1
102
RTVSPropertyOp50
 70
     1
102
RTVSPropertyOp51
 70
     0
102
RTVSPropertyOp52
 70
     0
102
RTVSPropertyOp53
 70
     1
102
RTVSPropertyOp54
 70
     1
102
RTVSPropertyOp55
 70
     1
102
RTVSPropertyOp56
 70
     1
102
RTVSPropertyOp57
 70
     1
102
RTVSPost2010Prop28
280
     0
102
RTVSPost2010PropOp28
 70
     1
102
RTVSPost2010Prop29
280
     1
102
RTVSPost2010PropOp29
 70
     1
102
RTVSPost2010Prop30
280
     1
102
RTVSPost2010PropOp30
 70
     1
102
RTVSPost2010Prop31
280
     0
102
RTVSPost2010PropOp31
 70
     1
102
RTVSPost2010Prop32
280
     0
102
RTVSPost2010PropOp32
 70
     1
102
RTVSPost2010Prop33
280
     0
102
RTVSPost2010PropOp33
 70
     1
102
RTVSPost2010Prop34
280
     0
102
RTVSPost2010PropOp34
 70
     1
102
RTVSPost2010Prop35
280
     0
102
RTVSPost2010PropOp35
 70
     1
102
RTVSPost2010Prop36
280
     0
102
RTVSPost2010PropOp36
 70
     1
102
RTVSPost2010Prop37
 90
       50
102
RTVSPost2010PropOp37
 70
     1
102
RTVSPost2010Prop38
140
0.0
102
RTVSPost2010PropOp38
 70
     1
102
RTVSPost2010Prop39
140
1.0
102
RTVSPost2010PropOp39
 70
     1
102
RTVSPost2010Prop40
 90
        0
102
RTVSPost2010PropOp40
 70
     1
102
RTVSPost2010Prop41ColorIndex
 90
       18
102
RTVSPost2010Prop41ColorRGB
 90
        0
102
RTVSPost2010PropOp41
 70
     1
102
RTVSPost2010Prop42
 90
       50
102
RTVSPost2010PropOp42
 70
     1
102
RTVSPost2010Prop43
 90
        3
102
RTVSPost2010PropOp43
 70
     1
102
RTVSPost2010Prop44ColorIndex
 90
        5
102
RTVSPost2010Prop44ColorRGB
 90
      255
102
RTVSPost2010PropOp44
 70
     1
102
RTVSPost2010Prop45
280
     0
102
RTVSPost2010PropOp45
 70
     1
102
RTVSPost2010Prop46
 90
       50
102
RTVSPost2010PropOp46
 70
     1
102
RTVSPost2010Prop47
 90
       50
102
RTVSPost2010PropOp47
 70
     1
102
RTVSPost2010Prop48
 90
       50
102
RTVSPost2010PropOp48
 70
     1
102
RTVSPost2010Prop49
280
     0
102
RTVSPost2010PropOp49
 70
     1
102
RTVSPost2010Prop50
 90
       50
102
RTVSPost2010PropOp50
 70
     1
102
RTVSPost2010Prop51ColorIndex
 90
      256
102
RTVSPost2010Prop51ColorRGB
 90
-16777216
102
RTVSPost2010PropOp51
 70
     0
102
RTVSPost2010Prop52
140
1.0
102
RTVSPost2010PropOp52
 70
     0
102
RTVSPost2010Prop53
 90
        2
102
RTVSPost2010PropOp53
 70
     1
102
RTVSPost2010Prop54
  1
strokes_ogs.tif
102
RTVSPost2010PropOp54
 70
     1
102
RTVSPost2010Prop55
280
     0
102
RTVSPost2010PropOp55
 70
     1
102
RTVSPost2010Prop56
140
1.0
102
RTVSPost2010PropOp56
 70
     1
102
RTVSPost2010Prop57
140
1.0
102
RTVSPost2010PropOp57
 70
     1
  0
XRECORD
  5
2DA
102
{ACAD_REACTORS
330
2D9
102
}
330
2D9
100
AcDbXrecord
280
     1
102
RTVSPropertyOp0
 70
     1
102
RTVSPropertyOp1
 70
     1
102
RTVSPropertyOp2
 70
     1
102
RTVSPropertyOp3
 70
     1
102
RTVSPropertyOp4
 70
     1
102
RTVSPropertyOp5
 70
     1
102
RTVSPropertyOp6
 70
     1
102
RTVSPropertyOp7
 70
     1
102
RTVSPropertyOp8
 70
     1
102
RTVSPropertyOp9
 70
     1
102
RTVSPropertyOp10
 70
     1
102
RTVSPropertyOp11
 70
     1
102
RTVSPropertyOp12
 70
     1
102
RTVSPropertyOp13
 70
     1
102
RTVSPropertyOp14
 70
     1
102
RTVSPropertyOp15
 70
     1
102
RTVSPropertyOp16
 70
     1
102
RTVSPropertyOp17
 70
     1
102
RTVSPropertyOp18
 70
     1
102
RTVSPropertyOp19
 70
     1
102
RTVSPropertyOp20
 70
     1
102
RTVSPropertyOp21
 70
     1
102
RTVSPropertyOp22
 70
     1
102
RTVSPropertyOp23
 70
     1
102
RTVSPropertyOp24
 70
     1
102
RTVSPropertyOp25
 70
     1
102
RTVSPropertyOp26
 70
     1
102
RTVSPropertyOp27
 70
     1
102
RTVSPropertyOp28
 70
     1
102
RTVSPropertyOp29
 70
     1
102
RTVSPropertyOp30
 70
     1
102
RTVSPropertyOp31
 70
     1
102
RTVSPropertyOp32
 70
     1
102
RTVSPropertyOp33
 70
     1
102
RTVSPropertyOp34
 70
     1
102
RTVSPropertyOp35
 70
     1
102
RTVSPropertyOp36
 70
     1
102
RTVSPropertyOp37
 70
     1
102
RTVSPropertyOp38
 70
     1
102
RTVSPropertyOp39
 70
     1
102
RTVSPropertyOp40
 70
     1
102
RTVSPropertyOp41
 70
     1
102
RTVSPropertyOp42
 70
     1
102
RTVSPropertyOp43
 70
     1
102
RTVSPropertyOp44
 70
     1
102
RTVSPropertyOp45
 70
     1
102
RTVSPropertyOp46
 70
     1
102
RTVSPropertyOp47
 70
     1
102
RTVSPropertyOp48
 70
     1
102
RTVSPropertyOp49
 70
     1
102
RTVSPropertyOp50
 70
     1
102
RTVSPropertyOp51
 70
     0
102
RTVSPropertyOp52
 70
     0
102
RTVSPropertyOp53
 70
     1
102
RTVSPropertyOp54
 70
     1
102
RTVSPropertyOp55
 70
     1
102
RTVSPropertyOp56
 70
     1
102
RTVSPropertyOp57
 70
     1
102
RTVSPost2010Prop28
280
     0
102
RTVSPost2010PropOp28
 70
     1
102
RTVSPost2010Prop29
280
     1
102
RTVSPost2010PropOp29
 70
     1
102
RTVSPost2010Prop30
280
     1
102
RTVSPost2010PropOp30
 70
     1
102
RTVSPost2010Prop31
280
     0
102
RTVSPost2010PropOp31
 70
     1
102
RTVSPost2010Prop32
280
     0
102
RTVSPost2010PropOp32
 70
     1
102
RTVSPost2010Prop33
280
     0
102
RTVSPost2010PropOp33
 70
     1
102
RTVSPost2010Prop34
280
     0
102
RTVSPost2010PropOp34
 70
     1
102
RTVSPost2010Prop35
280
     0
102
RTVSPost2010PropOp35
 70
     1
102
RTVSPost2010Prop36
280
     0
102
RTVSPost2010PropOp36
 70
     1
102
RTVSPost2010Prop37
 90
       50
102
RTVSPost2010PropOp37
 70
     1
102
RTVSPost2010Prop38
140
0.0
102
RTVSPost2010PropOp38
 70
     1
102
RTVSPost2010Prop39
140
1.0
102
RTVSPost2010PropOp39
 70
     1
102
RTVSPost2010Prop40
 90
        0
102
RTVSPost2010PropOp40
 70
     1
102
RTVSPost2010Prop41ColorIndex
 90
       18
102
RTVSPost2010Prop41ColorRGB
 90
        0
102
RTVSPost2010PropOp41
 70
     1
102
RTVSPost2010Prop42
 90
       50
102
RTVSPost2010PropOp42
 70
     1
102
RTVSPost2010Prop43
 90
        3
102
RTVSPost2010PropOp43
 70
     1
102
RTVSPost2010Prop44ColorIndex
 90
        5
102
RTVSPost2010Prop44ColorRGB
 90
      255
102
RTVSPost2010PropOp44
 70
     1
102
RTVSPost2010Prop45
280
     0
102
RTVSPost2010PropOp45
 70
     1
102
RTVSPost2010Prop46
 90
       50
102
RTVSPost2010PropOp46
 70
     1
102
RTVSPost2010Prop47
 90
       50
102
RTVSPost2010PropOp47
 70
     1
102
RTVSPost2010Prop48
 90
       50
102
RTVSPost2010PropOp48
 70
     1
102
RTVSPost2010Prop49
280
     0
102
RTVSPost2010PropOp49
 70
     1
102
RTVSPost2010Prop50
 90
       50
102
RTVSPost2010PropOp50
 70
     1
102
RTVSPost2010Prop51ColorIndex
 90
      256
102
RTVSPost2010Prop51ColorRGB
 90
-16777216
102
RTVSPost2010PropOp51
 70
     0
102
RTVSPost2010Prop52
140
1.0
102
RTVSPost2010PropOp52
 70
     0
102
RTVSPost2010Prop53
 90
        2
102
RTVSPost2010PropOp53
 70
     1
102
RTVSPost2010Prop54
  1
strokes_ogs.tif
102
RTVSPost2010PropOp54
 70
     1
102
RTVSPost2010Prop55
280
     0
102
RTVSPost2010PropOp55
 70
     1
102
RTVSPost2010Prop56
140
1.0
102
RTVSPost2010PropOp56
 70
     1
102
RTVSPost2010Prop57
140
1.0
102
RTVSPost2010PropOp57
 70
     1
  0
XRECORD
  5
2EE
102
{ACAD_REACTORS
330
2ED
102
}
330
2ED
100
AcDbXrecord
280
     1
102
RTVSPropertyOp0
 70
     0
102
RTVSPropertyOp1
 70
     0
102
RTVSPropertyOp2
 70
     0
102
RTVSPropertyOp3
 70
     0
102
RTVSPropertyOp4
 70
     0
102
RTVSPropertyOp5
 70
     0
102
RTVSPropertyOp6
 70
     0
102
RTVSPropertyOp7
 70
     0
102
RTVSPropertyOp8
 70
     0
102
RTVSPropertyOp9
 70
     0
102
RTVSPropertyOp10
 70
     0
102
RTVSPropertyOp11
 70
     0
102
RTVSPropertyOp12
 70
     0
102
RTVSPropertyOp13
 70
     0
102
RTVSPropertyOp14
 70
     2
102
RTVSPropertyOp15
 70
     0
102
RTVSPropertyOp16
 70
     0
102
RTVSPropertyOp17
 70
     0
102
RTVSPropertyOp18
 70
     0
102
RTVSPropertyOp19
 70
     0
102
RTVSPropertyOp20
 70
     0
102
RTVSPropertyOp21
 70
     0
102
RTVSPropertyOp22
 70
     0
102
RTVSPropertyOp23
 70
     0
102
RTVSPropertyOp24
 70
     0
102
RTVSPropertyOp25
 70
     0
102
RTVSPropertyOp26
 70
     0
102
RTVSPropertyOp27
 70
     0
102
RTVSPropertyOp28
 70
     0
102
RTVSPropertyOp29
 70
     0
102
RTVSPropertyOp30
 70
     0
102
RTVSPropertyOp31
 70
     0
102
RTVSPropertyOp32
 70
     0
102
RTVSPropertyOp33
 70
     0
102
RTVSPropertyOp34
 70
     0
102
RTVSPropertyOp35
 70
     0
102
RTVSPropertyOp36
 70
     0
102
RTVSPropertyOp37
 70
     0
102
RTVSPropertyOp38
 70
     0
102
RTVSPropertyOp39
 70
     0
102
RTVSPropertyOp40
 70
     0
102
RTVSPropertyOp41
 70
     0
102
RTVSPropertyOp42
 70
     0
102
RTVSPropertyOp43
 70
     0
102
RTVSPropertyOp44
 70
     0
102
RTVSPropertyOp45
 70
     0
102
RTVSPropertyOp46
 70
     0
102
RTVSPropertyOp47
 70
     0
102
RTVSPropertyOp48
 70
     0
102
RTVSPropertyOp49
 70
     0
102
RTVSPropertyOp50
 70
     0
102
RTVSPropertyOp51
 70
     0
102
RTVSPropertyOp52
 70
     0
102
RTVSPropertyOp53
 70
     0
102
RTVSPropertyOp54
 70
     0
102
RTVSPropertyOp55
 70
     0
102
RTVSPropertyOp56
 70
     0
102
RTVSPropertyOp57
 70
     0
102
RTVSPost2010Prop28
280
     0
102
RTVSPost2010PropOp28
 70
     0
102
RTVSPost2010Prop29
280
     1
102
RTVSPost2010PropOp29
 70
     0
102
RTVSPost2010Prop30
280
     1
102
RTVSPost2010PropOp30
 70
     0
102
RTVSPost2010Prop31
280
     0
102
RTVSPost2010PropOp31
 70
     0
102
RTVSPost2010Prop32
280
     0
102
RTVSPost2010PropOp32
 70
     0
102
RTVSPost2010Prop33
280
     0
102
RTVSPost2010PropOp33
 70
     0
102
RTVSPost2010Prop34
280
     0
102
RTVSPost2010PropOp34
 70
     0
102
RTVSPost2010Prop35
280
     0
102
RTVSPost2010PropOp35
 70
     0
102
RTVSPost2010Prop36
280
     0
102
RTVSPost2010PropOp36
 70
     0
102
RTVSPost2010Prop37
 90
       50
102
RTVSPost2010PropOp37
 70
     0
102
RTVSPost2010Prop38
140
0.0
102
RTVSPost2010PropOp38
 70
     0
102
RTVSPost2010Prop39
140
1.0
102
RTVSPost2010PropOp39
 70
     0
102
RTVSPost2010Prop40
 90
        0
102
RTVSPost2010PropOp40
 70
     0
102
RTVSPost2010Prop41ColorIndex
 90
       18
102
RTVSPost2010Prop41ColorRGB
 90
        0
102
RTVSPost2010PropOp41
 70
     0
102
RTVSPost2010Prop42
 90
       50
102
RTVSPost2010PropOp42
 70
     0
102
RTVSPost2010Prop43
 90
        3
102
RTVSPost2010PropOp43
 70
     0
102
RTVSPost2010Prop44ColorIndex
 90
        5
102
RTVSPost2010Prop44ColorRGB
 90
      255
102
RTVSPost2010PropOp44
 70
     0
102
RTVSPost2010Prop45
280
     0
102
RTVSPost2010PropOp45
 70
     0
102
RTVSPost2010Prop46
 90
       50
102
RTVSPost2010PropOp46
 70
     0
102
RTVSPost2010Prop47
 90
       50
102
RTVSPost2010PropOp47
 70
     0
102
RTVSPost2010Prop48
 90
       50
102
RTVSPost2010PropOp48
 70
     0
102
RTVSPost2010Prop49
280
     0
102
RTVSPost2010PropOp49
 70
     0
102
RTVSPost2010Prop50
 90
       50
102
RTVSPost2010PropOp50
 70
     0
102
RTVSPost2010Prop51ColorIndex
 90
      256
102
RTVSPost2010Prop51ColorRGB
 90
-16777216
102
RTVSPost2010PropOp51
 70
     0
102
RTVSPost2010Prop52
140
1.0
102
RTVSPost2010PropOp52
 70
     0
102
RTVSPost2010Prop53
 90
        2
102
RTVSPost2010PropOp53
 70
     0
102
RTVSPost2010Prop54
  1
strokes_ogs.tif
102
RTVSPost2010PropOp54
 70
     0
102
RTVSPost2010Prop55
280
     0
102
RTVSPost2010PropOp55
 70
     0
102
RTVSPost2010Prop56
140
1.0
102
RTVSPost2010PropOp56
 70
     0
102
RTVSPost2010Prop57
140
1.0
102
RTVSPost2010PropOp57
 70
     0
  0
XRECORD
  5
2E8
102
{ACAD_REACTORS
330
2E7
102
}
330
2E7
100
AcDbXrecord
280
     1
102
RTVSPropertyOp0
 70
     1
102
RTVSPropertyOp1
 70
     1
102
RTVSPropertyOp2
 70
     1
102
RTVSPropertyOp3
 70
     1
102
RTVSPropertyOp4
 70
     1
102
RTVSPropertyOp5
 70
     1
102
RTVSPropertyOp6
 70
     1
102
RTVSPropertyOp7
 70
     1
102
RTVSPropertyOp8
 70
     1
102
RTVSPropertyOp9
 70
     1
102
RTVSPropertyOp10
 70
     1
102
RTVSPropertyOp11
 70
     1
102
RTVSPropertyOp12
 70
     1
102
RTVSPropertyOp13
 70
     1
102
RTVSPropertyOp14
 70
     1
102
RTVSPropertyOp15
 70
     1
102
RTVSPropertyOp16
 70
     1
102
RTVSPropertyOp17
 70
     1
102
RTVSPropertyOp18
 70
     1
102
RTVSPropertyOp19
 70
     1
102
RTVSPropertyOp20
 70
     1
102
RTVSPropertyOp21
 70
     1
102
RTVSPropertyOp22
 70
     1
102
RTVSPropertyOp23
 70
     1
102
RTVSPropertyOp24
 70
     1
102
RTVSPropertyOp25
 70
     1
102
RTVSPropertyOp26
 70
     1
102
RTVSPropertyOp27
 70
     1
102
RTVSPropertyOp28
 70
     1
102
RTVSPropertyOp29
 70
     1
102
RTVSPropertyOp30
 70
     1
102
RTVSPropertyOp31
 70
     1
102
RTVSPropertyOp32
 70
     1
102
RTVSPropertyOp33
 70
     1
102
RTVSPropertyOp34
 70
     1
102
RTVSPropertyOp35
 70
     1
102
RTVSPropertyOp36
 70
     1
102
RTVSPropertyOp37
 70
     1
102
RTVSPropertyOp38
 70
     1
102
RTVSPropertyOp39
 70
     1
102
RTVSPropertyOp40
 70
     1
102
RTVSPropertyOp41
 70
     1
102
RTVSPropertyOp42
 70
     1
102
RTVSPropertyOp43
 70
     1
102
RTVSPropertyOp44
 70
     1
102
RTVSPropertyOp45
 70
     1
102
RTVSPropertyOp46
 70
     1
102
RTVSPropertyOp47
 70
     1
102
RTVSPropertyOp48
 70
     1
102
RTVSPropertyOp49
 70
     1
102
RTVSPropertyOp50
 70
     1
102
RTVSPropertyOp51
 70
     0
102
RTVSPropertyOp52
 70
     0
102
RTVSPropertyOp53
 70
     1
102
RTVSPropertyOp54
 70
     1
102
RTVSPropertyOp55
 70
     1
102
RTVSPropertyOp56
 70
     1
102
RTVSPropertyOp57
 70
     1
102
RTVSPost2010Prop28
280
     0
102
RTVSPost2010PropOp28
 70
     1
102
RTVSPost2010Prop29
280
     1
102
RTVSPost2010PropOp29
 70
     1
102
RTVSPost2010Prop30
280
     1
102
RTVSPost2010PropOp30
 70
     1
102
RTVSPost2010Prop31
280
     0
102
RTVSPost2010PropOp31
 70
     1
102
RTVSPost2010Prop32
280
     0
102
RTVSPost2010PropOp32
 70
     1
102
RTVSPost2010Prop33
280
     0
102
RTVSPost2010PropOp33
 70
     1
102
RTVSPost2010Prop34
280
     0
102
RTVSPost2010PropOp34
 70
     1
102
RTVSPost2010Prop35
280
     0
102
RTVSPost2010PropOp35
 70
     1
102
RTVSPost2010Prop36
280
     0
102
RTVSPost2010PropOp36
 70
     1
102
RTVSPost2010Prop37
 90
       50
102
RTVSPost2010PropOp37
 70
     1
102
RTVSPost2010Prop38
140
0.0
102
RTVSPost2010PropOp38
 70
     1
102
RTVSPost2010Prop39
140
1.0
102
RTVSPost2010PropOp39
 70
     1
102
RTVSPost2010Prop40
 90
        0
102
RTVSPost2010PropOp40
 70
     1
102
RTVSPost2010Prop41ColorIndex
 90
       18
102
RTVSPost2010Prop41ColorRGB
 90
        0
102
RTVSPost2010PropOp41
 70
     1
102
RTVSPost2010Prop42
 90
       50
102
RTVSPost2010PropOp42
 70
     1
102
RTVSPost2010Prop43
 90
        3
102
RTVSPost2010PropOp43
 70
     1
102
RTVSPost2010Prop44ColorIndex
 90
        5
102
RTVSPost2010Prop44ColorRGB
 90
      255
102
RTVSPost2010PropOp44
 70
     1
102
RTVSPost2010Prop45
280
     0
102
RTVSPost2010PropOp45
 70
     1
102
RTVSPost2010Prop46
 90
       50
102
RTVSPost2010PropOp46
 70
     1
102
RTVSPost2010Prop47
 90
       50
102
RTVSPost2010PropOp47
 70
     1
102
RTVSPost2010Prop48
 90
       50
102
RTVSPost2010PropOp48
 70
     1
102
RTVSPost2010Prop49
280
     0
102
RTVSPost2010PropOp49
 70
     1
102
RTVSPost2010Prop50
 90
       50
102
RTVSPost2010PropOp50
 70
     1
102
RTVSPost2010Prop51ColorIndex
 90
      256
102
RTVSPost2010Prop51ColorRGB
 90
-16777216
102
RTVSPost2010PropOp51
 70
     0
102
RTVSPost2010Prop52
140
1.0
102
RTVSPost2010PropOp52
 70
     0
102
RTVSPost2010Prop53
 90
        2
102
RTVSPost2010PropOp53
 70
     1
102
RTVSPost2010Prop54
  1
strokes_ogs.tif
102
RTVSPost2010PropOp54
 70
     1
102
RTVSPost2010Prop55
280
     0
102
RTVSPost2010PropOp55
 70
     1
102
RTVSPost2010Prop56
140
1.0
102
RTVSPost2010PropOp56
 70
     1
102
RTVSPost2010Prop57
140
1.0
102
RTVSPost2010PropOp57
 70
     1
  0
XRECORD
  5
2F0
102
{ACAD_REACTORS
330
2EF
102
}
330
2EF
100
AcDbXrecord
280
     1
102
RTVSPropertyOp0
 70
     0
102
RTVSPropertyOp1
 70
     0
102
RTVSPropertyOp2
 70
     0
102
RTVSPropertyOp3
 70
     0
102
RTVSPropertyOp4
 70
     0
102
RTVSPropertyOp5
 70
     0
102
RTVSPropertyOp6
 70
     0
102
RTVSPropertyOp7
 70
     0
102
RTVSPropertyOp8
 70
     0
102
RTVSPropertyOp9
 70
     0
102
RTVSPropertyOp10
 70
     0
102
RTVSPropertyOp11
 70
     0
102
RTVSPropertyOp12
 70
     0
102
RTVSPropertyOp13
 70
     0
102
RTVSPropertyOp14
 70
     2
102
RTVSPropertyOp15
 70
     0
102
RTVSPropertyOp16
 70
     0
102
RTVSPropertyOp17
 70
     0
102
RTVSPropertyOp18
 70
     0
102
RTVSPropertyOp19
 70
     0
102
RTVSPropertyOp20
 70
     0
102
RTVSPropertyOp21
 70
     0
102
RTVSPropertyOp22
 70
     0
102
RTVSPropertyOp23
 70
     0
102
RTVSPropertyOp24
 70
     0
102
RTVSPropertyOp25
 70
     0
102
RTVSPropertyOp26
 70
     0
102
RTVSPropertyOp27
 70
     0
102
RTVSPropertyOp28
 70
     0
102
RTVSPropertyOp29
 70
     0
102
RTVSPropertyOp30
 70
     0
102
RTVSPropertyOp31
 70
     0
102
RTVSPropertyOp32
 70
     0
102
RTVSPropertyOp33
 70
     0
102
RTVSPropertyOp34
 70
     0
102
RTVSPropertyOp35
 70
     0
102
RTVSPropertyOp36
 70
     0
102
RTVSPropertyOp37
 70
     0
102
RTVSPropertyOp38
 70
     0
102
RTVSPropertyOp39
 70
     0
102
RTVSPropertyOp40
 70
     0
102
RTVSPropertyOp41
 70
     0
102
RTVSPropertyOp42
 70
     0
102
RTVSPropertyOp43
 70
     0
102
RTVSPropertyOp44
 70
     0
102
RTVSPropertyOp45
 70
     0
102
RTVSPropertyOp46
 70
     0
102
RTVSPropertyOp47
 70
     0
102
RTVSPropertyOp48
 70
     0
102
RTVSPropertyOp49
 70
     0
102
RTVSPropertyOp50
 70
     0
102
RTVSPropertyOp51
 70
     0
102
RTVSPropertyOp52
 70
     0
102
RTVSPropertyOp53
 70
     0
102
RTVSPropertyOp54
 70
     0
102
RTVSPropertyOp55
 70
     0
102
RTVSPropertyOp56
 70
     0
102
RTVSPropertyOp57
 70
     0
102
RTVSPost2010Prop28
280
     0
102
RTVSPost2010PropOp28
 70
     0
102
RTVSPost2010Prop29
280
     1
102
RTVSPost2010PropOp29
 70
     0
102
RTVSPost2010Prop30
280
     1
102
RTVSPost2010PropOp30
 70
     0
102
RTVSPost2010Prop31
280
     0
102
RTVSPost2010PropOp31
 70
     0
102
RTVSPost2010Prop32
280
     0
102
RTVSPost2010PropOp32
 70
     0
102
RTVSPost2010Prop33
280
     0
102
RTVSPost2010PropOp33
 70
     0
102
RTVSPost2010Prop34
280
     0
102
RTVSPost2010PropOp34
 70
     0
102
RTVSPost2010Prop35
280
     0
102
RTVSPost2010PropOp35
 70
     0
102
RTVSPost2010Prop36
280
     0
102
RTVSPost2010PropOp36
 70
     0
102
RTVSPost2010Prop37
 90
       50
102
RTVSPost2010PropOp37
 70
     0
102
RTVSPost2010Prop38
140
0.0
102
RTVSPost2010PropOp38
 70
     0
102
RTVSPost2010Prop39
140
1.0
102
RTVSPost2010PropOp39
 70
     0
102
RTVSPost2010Prop40
 90
        0
102
RTVSPost2010PropOp40
 70
     0
102
RTVSPost2010Prop41ColorIndex
 90
       18
102
RTVSPost2010Prop41ColorRGB
 90
        0
102
RTVSPost2010PropOp41
 70
     0
102
RTVSPost2010Prop42
 90
       50
102
RTVSPost2010PropOp42
 70
     0
102
RTVSPost2010Prop43
 90
        3
102
RTVSPost2010PropOp43
 70
     0
102
RTVSPost2010Prop44ColorIndex
 90
        5
102
RTVSPost2010Prop44ColorRGB
 90
      255
102
RTVSPost2010PropOp44
 70
     0
102
RTVSPost2010Prop45
280
     0
102
RTVSPost2010PropOp45
 70
     0
102
RTVSPost2010Prop46
 90
       50
102
RTVSPost2010PropOp46
 70
     0
102
RTVSPost2010Prop47
 90
       50
102
RTVSPost2010PropOp47
 70
     0
102
RTVSPost2010Prop48
 90
       50
102
RTVSPost2010PropOp48
 70
     0
102
RTVSPost2010Prop49
280
     0
102
RTVSPost2010PropOp49
 70
     0
102
RTVSPost2010Prop50
 90
       50
102
RTVSPost2010PropOp50
 70
     0
102
RTVSPost2010Prop51ColorIndex
 90
      256
102
RTVSPost2010Prop51ColorRGB
 90
-16777216
102
RTVSPost2010PropOp51
 70
     0
102
RTVSPost2010Prop52
140
1.0
102
RTVSPost2010PropOp52
 70
     0
102
RTVSPost2010Prop53
 90
        2
102
RTVSPost2010PropOp53
 70
     0
102
RTVSPost2010Prop54
  1
strokes_ogs.tif
102
RTVSPost2010PropOp54
 70
     0
102
RTVSPost2010Prop55
280
     0
102
RTVSPost2010PropOp55
 70
     0
102
RTVSPost2010Prop56
140
1.0
102
RTVSPost2010PropOp56
 70
     0
102
RTVSPost2010Prop57
140
1.0
102
RTVSPost2010PropOp57
 70
     0
  0
XRECORD
  5
2DE
102
{ACAD_REACTORS
330
2DD
102
}
330
2DD
100
AcDbXrecord
280
     1
102
RTVSPropertyOp0
 70
     1
102
RTVSPropertyOp1
 70
     1
102
RTVSPropertyOp2
 70
     1
102
RTVSPropertyOp3
 70
     1
102
RTVSPropertyOp4
 70
     1
102
RTVSPropertyOp5
 70
     1
102
RTVSPropertyOp6
 70
     1
102
RTVSPropertyOp7
 70
     1
102
RTVSPropertyOp8
 70
     1
102
RTVSPropertyOp9
 70
     1
102
RTVSPropertyOp10
 70
     1
102
RTVSPropertyOp11
 70
     1
102
RTVSPropertyOp12
 70
     1
102
RTVSPropertyOp13
 70
     1
102
RTVSPropertyOp14
 70
     1
102
RTVSPropertyOp15
 70
     1
102
RTVSPropertyOp16
 70
     1
102
RTVSPropertyOp17
 70
     1
102
RTVSPropertyOp18
 70
     1
102
RTVSPropertyOp19
 70
     1
102
RTVSPropertyOp20
 70
     1
102
RTVSPropertyOp21
 70
     1
102
RTVSPropertyOp22
 70
     1
102
RTVSPropertyOp23
 70
     1
102
RTVSPropertyOp24
 70
     1
102
RTVSPropertyOp25
 70
     1
102
RTVSPropertyOp26
 70
     1
102
RTVSPropertyOp27
 70
     1
102
RTVSPropertyOp28
 70
     1
102
RTVSPropertyOp29
 70
     1
102
RTVSPropertyOp30
 70
     1
102
RTVSPropertyOp31
 70
     1
102
RTVSPropertyOp32
 70
     1
102
RTVSPropertyOp33
 70
     1
102
RTVSPropertyOp34
 70
     1
102
RTVSPropertyOp35
 70
     1
102
RTVSPropertyOp36
 70
     1
102
RTVSPropertyOp37
 70
     1
102
RTVSPropertyOp38
 70
     1
102
RTVSPropertyOp39
 70
     1
102
RTVSPropertyOp40
 70
     1
102
RTVSPropertyOp41
 70
     1
102
RTVSPropertyOp42
 70
     1
102
RTVSPropertyOp43
 70
     1
102
RTVSPropertyOp44
 70
     1
102
RTVSPropertyOp45
 70
     1
102
RTVSPropertyOp46
 70
     1
102
RTVSPropertyOp47
 70
     1
102
RTVSPropertyOp48
 70
     1
102
RTVSPropertyOp49
 70
     1
102
RTVSPropertyOp50
 70
     1
102
RTVSPropertyOp51
 70
     0
102
RTVSPropertyOp52
 70
     0
102
RTVSPropertyOp53
 70
     1
102
RTVSPropertyOp54
 70
     1
102
RTVSPropertyOp55
 70
     1
102
RTVSPropertyOp56
 70
     1
102
RTVSPropertyOp57
 70
     1
102
RTVSPost2010Prop28
280
     0
102
RTVSPost2010PropOp28
 70
     1
102
RTVSPost2010Prop29
280
     1
102
RTVSPost2010PropOp29
 70
     1
102
RTVSPost2010Prop30
280
     1
102
RTVSPost2010PropOp30
 70
     1
102
RTVSPost2010Prop31
280
     0
102
RTVSPost2010PropOp31
 70
     1
102
RTVSPost2010Prop32
280
     0
102
RTVSPost2010PropOp32
 70
     1
102
RTVSPost2010Prop33
280
     0
102
RTVSPost2010PropOp33
 70
     1
102
RTVSPost2010Prop34
280
     0
102
RTVSPost2010PropOp34
 70
     1
102
RTVSPost2010Prop35
280
     0
102
RTVSPost2010PropOp35
 70
     1
102
RTVSPost2010Prop36
280
     0
102
RTVSPost2010PropOp36
 70
     1
102
RTVSPost2010Prop37
 90
       50
102
RTVSPost2010PropOp37
 70
     1
102
RTVSPost2010Prop38
140
0.0
102
RTVSPost2010PropOp38
 70
     1
102
RTVSPost2010Prop39
140
1.0
102
RTVSPost2010PropOp39
 70
     1
102
RTVSPost2010Prop40
 90
        0
102
RTVSPost2010PropOp40
 70
     1
102
RTVSPost2010Prop41ColorIndex
 90
       18
102
RTVSPost2010Prop41ColorRGB
 90
        0
102
RTVSPost2010PropOp41
 70
     1
102
RTVSPost2010Prop42
 90
       50
102
RTVSPost2010PropOp42
 70
     1
102
RTVSPost2010Prop43
 90
        3
102
RTVSPost2010PropOp43
 70
     1
102
RTVSPost2010Prop44ColorIndex
 90
        5
102
RTVSPost2010Prop44ColorRGB
 90
      255
102
RTVSPost2010PropOp44
 70
     1
102
RTVSPost2010Prop45
280
     0
102
RTVSPost2010PropOp45
 70
     1
102
RTVSPost2010Prop46
 90
       50
102
RTVSPost2010PropOp46
 70
     1
102
RTVSPost2010Prop47
 90
       50
102
RTVSPost2010PropOp47
 70
     1
102
RTVSPost2010Prop48
 90
       50
102
RTVSPost2010PropOp48
 70
     1
102
RTVSPost2010Prop49
280
     0
102
RTVSPost2010PropOp49
 70
     1
102
RTVSPost2010Prop50
 90
       50
102
RTVSPost2010PropOp50
 70
     1
102
RTVSPost2010Prop51ColorIndex
 90
      256
102
RTVSPost2010Prop51ColorRGB
 90
-16777216
102
RTVSPost2010PropOp51
 70
     0
102
RTVSPost2010Prop52
140
1.0
102
RTVSPost2010PropOp52
 70
     0
102
RTVSPost2010Prop53
 90
        2
102
RTVSPost2010PropOp53
 70
     1
102
RTVSPost2010Prop54
  1
strokes_ogs.tif
102
RTVSPost2010PropOp54
 70
     1
102
RTVSPost2010Prop55
280
     0
102
RTVSPost2010PropOp55
 70
     1
102
RTVSPost2010Prop56
140
1.0
102
RTVSPost2010PropOp56
 70
     1
102
RTVSPost2010Prop57
140
1.0
102
RTVSPost2010PropOp57
 70
     1
  0
XRECORD
  5
2FC
102
{ACAD_REACTORS
330
2FB
102
}
330
2FB
100
AcDbXrecord
280
     1
102
RTVSPropertyOp0
 70
     1
102
RTVSPropertyOp1
 70
     1
102
RTVSPropertyOp2
 70
     1
102
RTVSPropertyOp3
 70
     1
102
RTVSPropertyOp4
 70
     1
102
RTVSPropertyOp5
 70
     1
102
RTVSPropertyOp6
 70
     1
102
RTVSPropertyOp7
 70
     1
102
RTVSPropertyOp8
 70
     1
102
RTVSPropertyOp9
 70
     1
102
RTVSPropertyOp10
 70
     1
102
RTVSPropertyOp11
 70
     1
102
RTVSPropertyOp12
 70
     1
102
RTVSPropertyOp13
 70
     1
102
RTVSPropertyOp14
 70
     1
102
RTVSPropertyOp15
 70
     1
102
RTVSPropertyOp16
 70
     1
102
RTVSPropertyOp17
 70
     1
102
RTVSPropertyOp18
 70
     1
102
RTVSPropertyOp19
 70
     1
102
RTVSPropertyOp20
 70
     1
102
RTVSPropertyOp21
 70
     1
102
RTVSPropertyOp22
 70
     1
102
RTVSPropertyOp23
 70
     1
102
RTVSPropertyOp24
 70
     1
102
RTVSPropertyOp25
 70
     1
102
RTVSPropertyOp26
 70
     1
102
RTVSPropertyOp27
 70
     1
102
RTVSPropertyOp28
 70
     1
102
RTVSPropertyOp29
 70
     1
102
RTVSPropertyOp30
 70
     1
102
RTVSPropertyOp31
 70
     1
102
RTVSPropertyOp32
 70
     1
102
RTVSPropertyOp33
 70
     1
102
RTVSPropertyOp34
 70
     1
102
RTVSPropertyOp35
 70
     1
102
RTVSPropertyOp36
 70
     1
102
RTVSPropertyOp37
 70
     1
102
RTVSPropertyOp38
 70
     1
102
RTVSPropertyOp39
 70
     1
102
RTVSPropertyOp40
 70
     1
102
RTVSPropertyOp41
 70
     1
102
RTVSPropertyOp42
 70
     1
102
RTVSPropertyOp43
 70
     1
102
RTVSPropertyOp44
 70
     1
102
RTVSPropertyOp45
 70
     1
102
RTVSPropertyOp46
 70
     1
102
RTVSPropertyOp47
 70
     1
102
RTVSPropertyOp48
 70
     1
102
RTVSPropertyOp49
 70
     1
102
RTVSPropertyOp50
 70
     1
102
RTVSPropertyOp51
 70
     0
102
RTVSPropertyOp52
 70
     0
102
RTVSPropertyOp53
 70
     1
102
RTVSPropertyOp54
 70
     1
102
RTVSPropertyOp55
 70
     1
102
RTVSPropertyOp56
 70
     1
102
RTVSPropertyOp57
 70
     1
102
RTVSPost2010Prop28
280
     0
102
RTVSPost2010PropOp28
 70
     1
102
RTVSPost2010Prop29
280
     1
102
RTVSPost2010PropOp29
 70
     1
102
RTVSPost2010Prop30
280
     1
102
RTVSPost2010PropOp30
 70
     1
102
RTVSPost2010Prop31
280
     0
102
RTVSPost2010PropOp31
 70
     1
102
RTVSPost2010Prop32
280
     0
102
RTVSPost2010PropOp32
 70
     1
102
RTVSPost2010Prop33
280
     0
102
RTVSPost2010PropOp33
 70
     1
102
RTVSPost2010Prop34
280
     0
102
RTVSPost2010PropOp34
 70
     1
102
RTVSPost2010Prop35
280
     0
102
RTVSPost2010PropOp35
 70
     1
102
RTVSPost2010Prop36
280
     0
102
RTVSPost2010PropOp36
 70
     1
102
RTVSPost2010Prop37
 90
       50
102
RTVSPost2010PropOp37
 70
     1
102
RTVSPost2010Prop38
140
0.0
102
RTVSPost2010PropOp38
 70
     1
102
RTVSPost2010Prop39
140
1.0
102
RTVSPost2010PropOp39
 70
     1
102
RTVSPost2010Prop40
 90
        0
102
RTVSPost2010PropOp40
 70
     1
102
RTVSPost2010Prop41ColorIndex
 90
       18
102
RTVSPost2010Prop41ColorRGB
 90
        0
102
RTVSPost2010PropOp41
 70
     1
102
RTVSPost2010Prop42
 90
       50
102
RTVSPost2010PropOp42
 70
     1
102
RTVSPost2010Prop43
 90
        3
102
RTVSPost2010PropOp43
 70
     1
102
RTVSPost2010Prop44ColorIndex
 90
        5
102
RTVSPost2010Prop44ColorRGB
 90
      255
102
RTVSPost2010PropOp44
 70
     1
102
RTVSPost2010Prop45
280
     0
102
RTVSPost2010PropOp45
 70
     1
102
RTVSPost2010Prop46
 90
       50
102
RTVSPost2010PropOp46
 70
     1
102
RTVSPost2010Prop47
 90
       50
102
RTVSPost2010PropOp47
 70
     1
102
RTVSPost2010Prop48
 90
       50
102
RTVSPost2010PropOp48
 70
     1
102
RTVSPost2010Prop49
280
     0
102
RTVSPost2010PropOp49
 70
     1
102
RTVSPost2010Prop50
 90
       50
102
RTVSPost2010PropOp50
 70
     1
102
RTVSPost2010Prop51ColorIndex
 90
      256
102
RTVSPost2010Prop51ColorRGB
 90
-16777216
102
RTVSPost2010PropOp51
 70
     0
102
RTVSPost2010Prop52
140
1.0
102
RTVSPost2010PropOp52
 70
     0
102
RTVSPost2010Prop53
 90
        2
102
RTVSPost2010PropOp53
 70
     1
102
RTVSPost2010Prop54
  1
strokes_ogs.tif
102
RTVSPost2010PropOp54
 70
     1
102
RTVSPost2010Prop55
280
     0
102
RTVSPost2010PropOp55
 70
     1
102
RTVSPost2010Prop56
140
1.0
102
RTVSPost2010PropOp56
 70
     1
102
RTVSPost2010Prop57
140
1.0
102
RTVSPost2010PropOp57
 70
     1
  0
XRECORD
  5
2FA
102
{ACAD_REACTORS
330
2F9
102
}
330
2F9
100
AcDbXrecord
280
     1
102
RTVSPropertyOp0
 70
     1
102
RTVSPropertyOp1
 70
     1
102
RTVSPropertyOp2
 70
     1
102
RTVSPropertyOp3
 70
     1
102
RTVSPropertyOp4
 70
     1
102
RTVSPropertyOp5
 70
     1
102
RTVSPropertyOp6
 70
     1
102
RTVSPropertyOp7
 70
     1
102
RTVSPropertyOp8
 70
     1
102
RTVSPropertyOp9
 70
     1
102
RTVSPropertyOp10
 70
     1
102
RTVSPropertyOp11
 70
     1
102
RTVSPropertyOp12
 70
     1
102
RTVSPropertyOp13
 70
     1
102
RTVSPropertyOp14
 70
     1
102
RTVSPropertyOp15
 70
     1
102
RTVSPropertyOp16
 70
     1
102
RTVSPropertyOp17
 70
     1
102
RTVSPropertyOp18
 70
     1
102
RTVSPropertyOp19
 70
     1
102
RTVSPropertyOp20
 70
     1
102
RTVSPropertyOp21
 70
     1
102
RTVSPropertyOp22
 70
     1
102
RTVSPropertyOp23
 70
     1
102
RTVSPropertyOp24
 70
     1
102
RTVSPropertyOp25
 70
     1
102
RTVSPropertyOp26
 70
     1
102
RTVSPropertyOp27
 70
     1
102
RTVSPropertyOp28
 70
     1
102
RTVSPropertyOp29
 70
     1
102
RTVSPropertyOp30
 70
     1
102
RTVSPropertyOp31
 70
     1
102
RTVSPropertyOp32
 70
     1
102
RTVSPropertyOp33
 70
     1
102
RTVSPropertyOp34
 70
     1
102
RTVSPropertyOp35
 70
     1
102
RTVSPropertyOp36
 70
     1
102
RTVSPropertyOp37
 70
     1
102
RTVSPropertyOp38
 70
     1
102
RTVSPropertyOp39
 70
     1
102
RTVSPropertyOp40
 70
     1
102
RTVSPropertyOp41
 70
     1
102
RTVSPropertyOp42
 70
     1
102
RTVSPropertyOp43
 70
     1
102
RTVSPropertyOp44
 70
     1
102
RTVSPropertyOp45
 70
     1
102
RTVSPropertyOp46
 70
     1
102
RTVSPropertyOp47
 70
     1
102
RTVSPropertyOp48
 70
     1
102
RTVSPropertyOp49
 70
     1
102
RTVSPropertyOp50
 70
     1
102
RTVSPropertyOp51
 70
     0
102
RTVSPropertyOp52
 70
     0
102
RTVSPropertyOp53
 70
     1
102
RTVSPropertyOp54
 70
     1
102
RTVSPropertyOp55
 70
     1
102
RTVSPropertyOp56
 70
     1
102
RTVSPropertyOp57
 70
     1
102
RTVSPost2010Prop28
280
     0
102
RTVSPost2010PropOp28
 70
     1
102
RTVSPost2010Prop29
280
     1
102
RTVSPost2010PropOp29
 70
     1
102
RTVSPost2010Prop30
280
     1
102
RTVSPost2010PropOp30
 70
     1
102
RTVSPost2010Prop31
280
     0
102
RTVSPost2010PropOp31
 70
     1
102
RTVSPost2010Prop32
280
     0
102
RTVSPost2010PropOp32
 70
     1
102
RTVSPost2010Prop33
280
     0
102
RTVSPost2010PropOp33
 70
     1
102
RTVSPost2010Prop34
280
     0
102
RTVSPost2010PropOp34
 70
     1
102
RTVSPost2010Prop35
280
     0
102
RTVSPost2010PropOp35
 70
     1
102
RTVSPost2010Prop36
280
     0
102
RTVSPost2010PropOp36
 70
     1
102
RTVSPost2010Prop37
 90
       50
102
RTVSPost2010PropOp37
 70
     1
102
RTVSPost2010Prop38
140
0.0
102
RTVSPost2010PropOp38
 70
     1
102
RTVSPost2010Prop39
140
1.0
102
RTVSPost2010PropOp39
 70
     1
102
RTVSPost2010Prop40
 90
        0
102
RTVSPost2010PropOp40
 70
     1
102
RTVSPost2010Prop41ColorIndex
 90
       18
102
RTVSPost2010Prop41ColorRGB
 90
        0
102
RTVSPost2010PropOp41
 70
     1
102
RTVSPost2010Prop42
 90
       50
102
RTVSPost2010PropOp42
 70
     1
102
RTVSPost2010Prop43
 90
        3
102
RTVSPost2010PropOp43
 70
     1
102
RTVSPost2010Prop44ColorIndex
 90
        5
102
RTVSPost2010Prop44ColorRGB
 90
      255
102
RTVSPost2010PropOp44
 70
     1
102
RTVSPost2010Prop45
280
     0
102
RTVSPost2010PropOp45
 70
     1
102
RTVSPost2010Prop46
 90
       50
102
RTVSPost2010PropOp46
 70
     1
102
RTVSPost2010Prop47
 90
       50
102
RTVSPost2010PropOp47
 70
     1
102
RTVSPost2010Prop48
 90
       50
102
RTVSPost2010PropOp48
 70
     1
102
RTVSPost2010Prop49
280
     0
102
RTVSPost2010PropOp49
 70
     1
102
RTVSPost2010Prop50
 90
       50
102
RTVSPost2010PropOp50
 70
     1
102
RTVSPost2010Prop51ColorIndex
 90
      256
102
RTVSPost2010Prop51ColorRGB
 90
-16777216
102
RTVSPost2010PropOp51
 70
     0
102
RTVSPost2010Prop52
140
1.0
102
RTVSPost2010PropOp52
 70
     0
102
RTVSPost2010Prop53
 90
        2
102
RTVSPost2010PropOp53
 70
     1
102
RTVSPost2010Prop54
  1
strokes_ogs.tif
102
RTVSPost2010PropOp54
 70
     1
102
RTVSPost2010Prop55
280
     0
102
RTVSPost2010PropOp55
 70
     1
102
RTVSPost2010Prop56
140
1.0
102
RTVSPost2010PropOp56
 70
     1
102
RTVSPost2010Prop57
140
1.0
102
RTVSPost2010PropOp57
 70
     1
  0
XRECORD
  5
2F4
102
{ACAD_REACTORS
330
2F3
102
}
330
2F3
100
AcDbXrecord
280
     1
102
RTVSPropertyOp0
 70
     1
102
RTVSPropertyOp1
 70
     1
102
RTVSPropertyOp2
 70
     1
102
RTVSPropertyOp3
 70
     1
102
RTVSPropertyOp4
 70
     1
102
RTVSPropertyOp5
 70
     1
102
RTVSPropertyOp6
 70
     1
102
RTVSPropertyOp7
 70
     1
102
RTVSPropertyOp8
 70
     1
102
RTVSPropertyOp9
 70
     1
102
RTVSPropertyOp10
 70
     1
102
RTVSPropertyOp11
 70
     1
102
RTVSPropertyOp12
 70
     1
102
RTVSPropertyOp13
 70
     1
102
RTVSPropertyOp14
 70
     1
102
RTVSPropertyOp15
 70
     1
102
RTVSPropertyOp16
 70
     1
102
RTVSPropertyOp17
 70
     1
102
RTVSPropertyOp18
 70
     1
102
RTVSPropertyOp19
 70
     1
102
RTVSPropertyOp20
 70
     1
102
RTVSPropertyOp21
 70
     1
102
RTVSPropertyOp22
 70
     1
102
RTVSPropertyOp23
 70
     1
102
RTVSPropertyOp24
 70
     1
102
RTVSPropertyOp25
 70
     1
102
RTVSPropertyOp26
 70
     1
102
RTVSPropertyOp27
 70
     1
102
RTVSPropertyOp28
 70
     1
102
RTVSPropertyOp29
 70
     1
102
RTVSPropertyOp30
 70
     1
102
RTVSPropertyOp31
 70
     1
102
RTVSPropertyOp32
 70
     1
102
RTVSPropertyOp33
 70
     1
102
RTVSPropertyOp34
 70
     1
102
RTVSPropertyOp35
 70
     1
102
RTVSPropertyOp36
 70
     1
102
RTVSPropertyOp37
 70
     1
102
RTVSPropertyOp38
 70
     1
102
RTVSPropertyOp39
 70
     1
102
RTVSPropertyOp40
 70
     1
102
RTVSPropertyOp41
 70
     1
102
RTVSPropertyOp42
 70
     1
102
RTVSPropertyOp43
 70
     1
102
RTVSPropertyOp44
 70
     1
102
RTVSPropertyOp45
 70
     1
102
RTVSPropertyOp46
 70
     1
102
RTVSPropertyOp47
 70
     1
102
RTVSPropertyOp48
 70
     1
102
RTVSPropertyOp49
 70
     1
102
RTVSPropertyOp50
 70
     1
102
RTVSPropertyOp51
 70
     0
102
RTVSPropertyOp52
 70
     0
102
RTVSPropertyOp53
 70
     1
102
RTVSPropertyOp54
 70
     1
102
RTVSPropertyOp55
 70
     1
102
RTVSPropertyOp56
 70
     1
102
RTVSPropertyOp57
 70
     1
102
RTVSPost2010Prop28
280
     0
102
RTVSPost2010PropOp28
 70
     1
102
RTVSPost2010Prop29
280
     1
102
RTVSPost2010PropOp29
 70
     1
102
RTVSPost2010Prop30
280
     1
102
RTVSPost2010PropOp30
 70
     1
102
RTVSPost2010Prop31
280
     0
102
RTVSPost2010PropOp31
 70
     1
102
RTVSPost2010Prop32
280
     0
102
RTVSPost2010PropOp32
 70
     1
102
RTVSPost2010Prop33
280
     0
102
RTVSPost2010PropOp33
 70
     1
102
RTVSPost2010Prop34
280
     0
102
RTVSPost2010PropOp34
 70
     1
102
RTVSPost2010Prop35
280
     0
102
RTVSPost2010PropOp35
 70
     1
102
RTVSPost2010Prop36
280
     0
102
RTVSPost2010PropOp36
 70
     1
102
RTVSPost2010Prop37
 90
       50
102
RTVSPost2010PropOp37
 70
     1
102
RTVSPost2010Prop38
140
0.0
102
RTVSPost2010PropOp38
 70
     1
102
RTVSPost2010Prop39
140
1.0
102
RTVSPost2010PropOp39
 70
     1
102
RTVSPost2010Prop40
 90
        0
102
RTVSPost2010PropOp40
 70
     1
102
RTVSPost2010Prop41ColorIndex
 90
       18
102
RTVSPost2010Prop41ColorRGB
 90
        0
102
RTVSPost2010PropOp41
 70
     1
102
RTVSPost2010Prop42
 90
       50
102
RTVSPost2010PropOp42
 70
     1
102
RTVSPost2010Prop43
 90
        3
102
RTVSPost2010PropOp43
 70
     1
102
RTVSPost2010Prop44ColorIndex
 90
        5
102
RTVSPost2010Prop44ColorRGB
 90
      255
102
RTVSPost2010PropOp44
 70
     1
102
RTVSPost2010Prop45
280
     0
102
RTVSPost2010PropOp45
 70
     1
102
RTVSPost2010Prop46
 90
       50
102
RTVSPost2010PropOp46
 70
     1
102
RTVSPost2010Prop47
 90
       50
102
RTVSPost2010PropOp47
 70
     1
102
RTVSPost2010Prop48
 90
       50
102
RTVSPost2010PropOp48
 70
     1
102
RTVSPost2010Prop49
280
     0
102
RTVSPost2010PropOp49
 70
     1
102
RTVSPost2010Prop50
 90
       50
102
RTVSPost2010PropOp50
 70
     1
102
RTVSPost2010Prop51ColorIndex
 90
      256
102
RTVSPost2010Prop51ColorRGB
 90
-16777216
102
RTVSPost2010PropOp51
 70
     0
102
RTVSPost2010Prop52
140
1.0
102
RTVSPost2010PropOp52
 70
     0
102
RTVSPost2010Prop53
 90
        2
102
RTVSPost2010PropOp53
 70
     1
102
RTVSPost2010Prop54
  1
strokes_ogs.tif
102
RTVSPost2010PropOp54
 70
     1
102
RTVSPost2010Prop55
280
     0
102
RTVSPost2010PropOp55
 70
     1
102
RTVSPost2010Prop56
140
1.0
102
RTVSPost2010PropOp56
 70
     1
102
RTVSPost2010Prop57
140
1.0
102
RTVSPost2010PropOp57
 70
     1
  0
XRECORD
  5
2F6
102
{ACAD_REACTORS
330
2F5
102
}
330
2F5
100
AcDbXrecord
280
     1
102
RTVSPropertyOp0
 70
     1
102
RTVSPropertyOp1
 70
     1
102
RTVSPropertyOp2
 70
     1
102
RTVSPropertyOp3
 70
     1
102
RTVSPropertyOp4
 70
     1
102
RTVSPropertyOp5
 70
     1
102
RTVSPropertyOp6
 70
     1
102
RTVSPropertyOp7
 70
     1
102
RTVSPropertyOp8
 70
     1
102
RTVSPropertyOp9
 70
     1
102
RTVSPropertyOp10
 70
     1
102
RTVSPropertyOp11
 70
     1
102
RTVSPropertyOp12
 70
     1
102
RTVSPropertyOp13
 70
     1
102
RTVSPropertyOp14
 70
     1
102
RTVSPropertyOp15
 70
     1
102
RTVSPropertyOp16
 70
     1
102
RTVSPropertyOp17
 70
     1
102
RTVSPropertyOp18
 70
     1
102
RTVSPropertyOp19
 70
     1
102
RTVSPropertyOp20
 70
     1
102
RTVSPropertyOp21
 70
     1
102
RTVSPropertyOp22
 70
     1
102
RTVSPropertyOp23
 70
     1
102
RTVSPropertyOp24
 70
     1
102
RTVSPropertyOp25
 70
     1
102
RTVSPropertyOp26
 70
     1
102
RTVSPropertyOp27
 70
     1
102
RTVSPropertyOp28
 70
     1
102
RTVSPropertyOp29
 70
     1
102
RTVSPropertyOp30
 70
     1
102
RTVSPropertyOp31
 70
     1
102
RTVSPropertyOp32
 70
     1
102
RTVSPropertyOp33
 70
     1
102
RTVSPropertyOp34
 70
     1
102
RTVSPropertyOp35
 70
     1
102
RTVSPropertyOp36
 70
     1
102
RTVSPropertyOp37
 70
     1
102
RTVSPropertyOp38
 70
     1
102
RTVSPropertyOp39
 70
     1
102
RTVSPropertyOp40
 70
     1
102
RTVSPropertyOp41
 70
     1
102
RTVSPropertyOp42
 70
     1
102
RTVSPropertyOp43
 70
     1
102
RTVSPropertyOp44
 70
     1
102
RTVSPropertyOp45
 70
     1
102
RTVSPropertyOp46
 70
     1
102
RTVSPropertyOp47
 70
     1
102
RTVSPropertyOp48
 70
     1
102
RTVSPropertyOp49
 70
     1
102
RTVSPropertyOp50
 70
     1
102
RTVSPropertyOp51
 70
     0
102
RTVSPropertyOp52
 70
     0
102
RTVSPropertyOp53
 70
     1
102
RTVSPropertyOp54
 70
     1
102
RTVSPropertyOp55
 70
     1
102
RTVSPropertyOp56
 70
     1
102
RTVSPropertyOp57
 70
     1
102
RTVSPost2010Prop28
280
     0
102
RTVSPost2010PropOp28
 70
     1
102
RTVSPost2010Prop29
280
     1
102
RTVSPost2010PropOp29
 70
     1
102
RTVSPost2010Prop30
280
     1
102
RTVSPost2010PropOp30
 70
     1
102
RTVSPost2010Prop31
280
     0
102
RTVSPost2010PropOp31
 70
     1
102
RTVSPost2010Prop32
280
     0
102
RTVSPost2010PropOp32
 70
     1
102
RTVSPost2010Prop33
280
     0
102
RTVSPost2010PropOp33
 70
     1
102
RTVSPost2010Prop34
280
     0
102
RTVSPost2010PropOp34
 70
     1
102
RTVSPost2010Prop35
280
     0
102
RTVSPost2010PropOp35
 70
     1
102
RTVSPost2010Prop36
280
     0
102
RTVSPost2010PropOp36
 70
     1
102
RTVSPost2010Prop37
 90
       50
102
RTVSPost2010PropOp37
 70
     1
102
RTVSPost2010Prop38
140
0.0
102
RTVSPost2010PropOp38
 70
     1
102
RTVSPost2010Prop39
140
1.0
102
RTVSPost2010PropOp39
 70
     1
102
RTVSPost2010Prop40
 90
        0
102
RTVSPost2010PropOp40
 70
     1
102
RTVSPost2010Prop41ColorIndex
 90
       18
102
RTVSPost2010Prop41ColorRGB
 90
        0
102
RTVSPost2010PropOp41
 70
     1
102
RTVSPost2010Prop42
 90
       50
102
RTVSPost2010PropOp42
 70
     1
102
RTVSPost2010Prop43
 90
        3
102
RTVSPost2010PropOp43
 70
     1
102
RTVSPost2010Prop44ColorIndex
 90
        5
102
RTVSPost2010Prop44ColorRGB
 90
      255
102
RTVSPost2010PropOp44
 70
     1
102
RTVSPost2010Prop45
280
     0
102
RTVSPost2010PropOp45
 70
     1
102
RTVSPost2010Prop46
 90
       50
102
RTVSPost2010PropOp46
 70
     1
102
RTVSPost2010Prop47
 90
       50
102
RTVSPost2010PropOp47
 70
     1
102
RTVSPost2010Prop48
 90
       50
102
RTVSPost2010PropOp48
 70
     1
102
RTVSPost2010Prop49
280
     0
102
RTVSPost2010PropOp49
 70
     1
102
RTVSPost2010Prop50
 90
       50
102
RTVSPost2010PropOp50
 70
     1
102
RTVSPost2010Prop51ColorIndex
 90
      256
102
RTVSPost2010Prop51ColorRGB
 90
-16777216
102
RTVSPost2010PropOp51
 70
     0
102
RTVSPost2010Prop52
140
1.0
102
RTVSPost2010PropOp52
 70
     0
102
RTVSPost2010Prop53
 90
        2
102
RTVSPost2010PropOp53
 70
     1
102
RTVSPost2010Prop54
  1
strokes_ogs.tif
102
RTVSPost2010PropOp54
 70
     1
102
RTVSPost2010Prop55
280
     0
102
RTVSPost2010PropOp55
 70
     1
102
RTVSPost2010Prop56
140
1.0
102
RTVSPost2010PropOp56
 70
     1
102
RTVSPost2010Prop57
140
1.0
102
RTVSPost2010PropOp57
 70
     1
  0
XRECORD
  5
2E6
102
{ACAD_REACTORS
330
2E5
102
}
330
2E5
100
AcDbXrecord
280
     1
102
RTVSPropertyOp0
 70
     1
102
RTVSPropertyOp1
 70
     1
102
RTVSPropertyOp2
 70
     1
102
RTVSPropertyOp3
 70
     1
102
RTVSPropertyOp4
 70
     1
102
RTVSPropertyOp5
 70
     1
102
RTVSPropertyOp6
 70
     1
102
RTVSPropertyOp7
 70
     1
102
RTVSPropertyOp8
 70
     1
102
RTVSPropertyOp9
 70
     1
102
RTVSPropertyOp10
 70
     1
102
RTVSPropertyOp11
 70
     1
102
RTVSPropertyOp12
 70
     1
102
RTVSPropertyOp13
 70
     1
102
RTVSPropertyOp14
 70
     1
102
RTVSPropertyOp15
 70
     1
102
RTVSPropertyOp16
 70
     1
102
RTVSPropertyOp17
 70
     1
102
RTVSPropertyOp18
 70
     1
102
RTVSPropertyOp19
 70
     1
102
RTVSPropertyOp20
 70
     1
102
RTVSPropertyOp21
 70
     1
102
RTVSPropertyOp22
 70
     1
102
RTVSPropertyOp23
 70
     1
102
RTVSPropertyOp24
 70
     1
102
RTVSPropertyOp25
 70
     1
102
RTVSPropertyOp26
 70
     1
102
RTVSPropertyOp27
 70
     1
102
RTVSPropertyOp28
 70
     1
102
RTVSPropertyOp29
 70
     1
102
RTVSPropertyOp30
 70
     1
102
RTVSPropertyOp31
 70
     1
102
RTVSPropertyOp32
 70
     1
102
RTVSPropertyOp33
 70
     1
102
RTVSPropertyOp34
 70
     1
102
RTVSPropertyOp35
 70
     1
102
RTVSPropertyOp36
 70
     1
102
RTVSPropertyOp37
 70
     1
102
RTVSPropertyOp38
 70
     1
102
RTVSPropertyOp39
 70
     1
102
RTVSPropertyOp40
 70
     1
102
RTVSPropertyOp41
 70
     1
102
RTVSPropertyOp42
 70
     1
102
RTVSPropertyOp43
 70
     1
102
RTVSPropertyOp44
 70
     1
102
RTVSPropertyOp45
 70
     1
102
RTVSPropertyOp46
 70
     1
102
RTVSPropertyOp47
 70
     1
102
RTVSPropertyOp48
 70
     1
102
RTVSPropertyOp49
 70
     1
102
RTVSPropertyOp50
 70
     1
102
RTVSPropertyOp51
 70
     0
102
RTVSPropertyOp52
 70
     0
102
RTVSPropertyOp53
 70
     1
102
RTVSPropertyOp54
 70
     1
102
RTVSPropertyOp55
 70
     1
102
RTVSPropertyOp56
 70
     1
102
RTVSPropertyOp57
 70
     1
102
RTVSPost2010Prop28
280
     0
102
RTVSPost2010PropOp28
 70
     1
102
RTVSPost2010Prop29
280
     1
102
RTVSPost2010PropOp29
 70
     1
102
RTVSPost2010Prop30
280
     1
102
RTVSPost2010PropOp30
 70
     1
102
RTVSPost2010Prop31
280
     0
102
RTVSPost2010PropOp31
 70
     1
102
RTVSPost2010Prop32
280
     0
102
RTVSPost2010PropOp32
 70
     1
102
RTVSPost2010Prop33
280
     0
102
RTVSPost2010PropOp33
 70
     1
102
RTVSPost2010Prop34
280
     0
102
RTVSPost2010PropOp34
 70
     1
102
RTVSPost2010Prop35
280
     0
102
RTVSPost2010PropOp35
 70
     1
102
RTVSPost2010Prop36
280
     0
102
RTVSPost2010PropOp36
 70
     1
102
RTVSPost2010Prop37
 90
       50
102
RTVSPost2010PropOp37
 70
     1
102
RTVSPost2010Prop38
140
0.0
102
RTVSPost2010PropOp38
 70
     1
102
RTVSPost2010Prop39
140
1.0
102
RTVSPost2010PropOp39
 70
     1
102
RTVSPost2010Prop40
 90
        0
102
RTVSPost2010PropOp40
 70
     1
102
RTVSPost2010Prop41ColorIndex
 90
       18
102
RTVSPost2010Prop41ColorRGB
 90
        0
102
RTVSPost2010PropOp41
 70
     1
102
RTVSPost2010Prop42
 90
       50
102
RTVSPost2010PropOp42
 70
     1
102
RTVSPost2010Prop43
 90
        3
102
RTVSPost2010PropOp43
 70
     1
102
RTVSPost2010Prop44ColorIndex
 90
        5
102
RTVSPost2010Prop44ColorRGB
 90
      255
102
RTVSPost2010PropOp44
 70
     1
102
RTVSPost2010Prop45
280
     0
102
RTVSPost2010PropOp45
 70
     1
102
RTVSPost2010Prop46
 90
       50
102
RTVSPost2010PropOp46
 70
     1
102
RTVSPost2010Prop47
 90
       50
102
RTVSPost2010PropOp47
 70
     1
102
RTVSPost2010Prop48
 90
       50
102
RTVSPost2010PropOp48
 70
     1
102
RTVSPost2010Prop49
280
     0
102
RTVSPost2010PropOp49
 70
     1
102
RTVSPost2010Prop50
 90
       50
102
RTVSPost2010PropOp50
 70
     1
102
RTVSPost2010Prop51ColorIndex
 90
      256
102
RTVSPost2010Prop51ColorRGB
 90
-16777216
102
RTVSPost2010PropOp51
 70
     0
102
RTVSPost2010Prop52
140
1.0
102
RTVSPost2010PropOp52
 70
     0
102
RTVSPost2010Prop53
 90
        2
102
RTVSPost2010PropOp53
 70
     1
102
RTVSPost2010Prop54
  1
strokes_ogs.tif
102
RTVSPost2010PropOp54
 70
     1
102
RTVSPost2010Prop55
280
     0
102
RTVSPost2010PropOp55
 70
     1
102
RTVSPost2010Prop56
140
1.0
102
RTVSPost2010PropOp56
 70
     1
102
RTVSPost2010Prop57
140
1.0
102
RTVSPost2010PropOp57
 70
     1
  0
XRECORD
  5
2D8
102
{ACAD_REACTORS
330
2D7
102
}
330
2D7
100
AcDbXrecord
280
     1
102
RTVSPropertyOp0
 70
     1
102
RTVSPropertyOp1
 70
     1
102
RTVSPropertyOp2
 70
     1
102
RTVSPropertyOp3
 70
     1
102
RTVSPropertyOp4
 70
     1
102
RTVSPropertyOp5
 70
     1
102
RTVSPropertyOp6
 70
     1
102
RTVSPropertyOp7
 70
     1
102
RTVSPropertyOp8
 70
     1
102
RTVSPropertyOp9
 70
     1
102
RTVSPropertyOp10
 70
     1
102
RTVSPropertyOp11
 70
     1
102
RTVSPropertyOp12
 70
     1
102
RTVSPropertyOp13
 70
     1
102
RTVSPropertyOp14
 70
     1
102
RTVSPropertyOp15
 70
     1
102
RTVSPropertyOp16
 70
     1
102
RTVSPropertyOp17
 70
     1
102
RTVSPropertyOp18
 70
     1
102
RTVSPropertyOp19
 70
     1
102
RTVSPropertyOp20
 70
     1
102
RTVSPropertyOp21
 70
     1
102
RTVSPropertyOp22
 70
     1
102
RTVSPropertyOp23
 70
     1
102
RTVSPropertyOp24
 70
     1
102
RTVSPropertyOp25
 70
     1
102
RTVSPropertyOp26
 70
     1
102
RTVSPropertyOp27
 70
     1
102
RTVSPropertyOp28
 70
     1
102
RTVSPropertyOp29
 70
     1
102
RTVSPropertyOp30
 70
     1
102
RTVSPropertyOp31
 70
     1
102
RTVSPropertyOp32
 70
     1
102
RTVSPropertyOp33
 70
     1
102
RTVSPropertyOp34
 70
     1
102
RTVSPropertyOp35
 70
     1
102
RTVSPropertyOp36
 70
     1
102
RTVSPropertyOp37
 70
     1
102
RTVSPropertyOp38
 70
     1
102
RTVSPropertyOp39
 70
     1
102
RTVSPropertyOp40
 70
     1
102
RTVSPropertyOp41
 70
     1
102
RTVSPropertyOp42
 70
     1
102
RTVSPropertyOp43
 70
     1
102
RTVSPropertyOp44
 70
     1
102
RTVSPropertyOp45
 70
     1
102
RTVSPropertyOp46
 70
     1
102
RTVSPropertyOp47
 70
     1
102
RTVSPropertyOp48
 70
     1
102
RTVSPropertyOp49
 70
     1
102
RTVSPropertyOp50
 70
     1
102
RTVSPropertyOp51
 70
     0
102
RTVSPropertyOp52
 70
     0
102
RTVSPropertyOp53
 70
     1
102
RTVSPropertyOp54
 70
     1
102
RTVSPropertyOp55
 70
     1
102
RTVSPropertyOp56
 70
     1
102
RTVSPropertyOp57
 70
     1
102
RTVSPost2010Prop28
280
     0
102
RTVSPost2010PropOp28
 70
     1
102
RTVSPost2010Prop29
280
     1
102
RTVSPost2010PropOp29
 70
     1
102
RTVSPost2010Prop30
280
     1
102
RTVSPost2010PropOp30
 70
     1
102
RTVSPost2010Prop31
280
     0
102
RTVSPost2010PropOp31
 70
     1
102
RTVSPost2010Prop32
280
     0
102
RTVSPost2010PropOp32
 70
     1
102
RTVSPost2010Prop33
280
     0
102
RTVSPost2010PropOp33
 70
     1
102
RTVSPost2010Prop34
280
     0
102
RTVSPost2010PropOp34
 70
     1
102
RTVSPost2010Prop35
280
     0
102
RTVSPost2010PropOp35
 70
     1
102
RTVSPost2010Prop36
280
     0
102
RTVSPost2010PropOp36
 70
     1
102
RTVSPost2010Prop37
 90
       50
102
RTVSPost2010PropOp37
 70
     1
102
RTVSPost2010Prop38
140
0.0
102
RTVSPost2010PropOp38
 70
     1
102
RTVSPost2010Prop39
140
1.0
102
RTVSPost2010PropOp39
 70
     1
102
RTVSPost2010Prop40
 90
        0
102
RTVSPost2010PropOp40
 70
     1
102
RTVSPost2010Prop41ColorIndex
 90
       18
102
RTVSPost2010Prop41ColorRGB
 90
        0
102
RTVSPost2010PropOp41
 70
     1
102
RTVSPost2010Prop42
 90
       50
102
RTVSPost2010PropOp42
 70
     1
102
RTVSPost2010Prop43
 90
        3
102
RTVSPost2010PropOp43
 70
     1
102
RTVSPost2010Prop44ColorIndex
 90
        5
102
RTVSPost2010Prop44ColorRGB
 90
      255
102
RTVSPost2010PropOp44
 70
     1
102
RTVSPost2010Prop45
280
     0
102
RTVSPost2010PropOp45
 70
     1
102
RTVSPost2010Prop46
 90
       50
102
RTVSPost2010PropOp46
 70
     1
102
RTVSPost2010Prop47
 90
       50
102
RTVSPost2010PropOp47
 70
     1
102
RTVSPost2010Prop48
 90
       50
102
RTVSPost2010PropOp48
 70
     1
102
RTVSPost2010Prop49
280
     0
102
RTVSPost2010PropOp49
 70
     1
102
RTVSPost2010Prop50
 90
       50
102
RTVSPost2010PropOp50
 70
     1
102
RTVSPost2010Prop51ColorIndex
 90
      256
102
RTVSPost2010Prop51ColorRGB
 90
-16777216
102
RTVSPost2010PropOp51
 70
     0
102
RTVSPost2010Prop52
140
1.0
102
RTVSPost2010PropOp52
 70
     0
102
RTVSPost2010Prop53
 90
        2
102
RTVSPost2010PropOp53
 70
     1
102
RTVSPost2010Prop54
  1
strokes_ogs.tif
102
RTVSPost2010PropOp54
 70
     1
102
RTVSPost2010Prop55
280
     0
102
RTVSPost2010PropOp55
 70
     1
102
RTVSPost2010Prop56
140
1.0
102
RTVSPost2010PropOp56
 70
     1
102
RTVSPost2010Prop57
140
1.0
102
RTVSPost2010PropOp57
 70
     1
  0
XRECORD
  5
2F8
102
{ACAD_REACTORS
330
2F7
102
}
330
2F7
100
AcDbXrecord
280
     1
102
RTVSPropertyOp0
 70
     1
102
RTVSPropertyOp1
 70
     1
102
RTVSPropertyOp2
 70
     1
102
RTVSPropertyOp3
 70
     1
102
RTVSPropertyOp4
 70
     1
102
RTVSPropertyOp5
 70
     1
102
RTVSPropertyOp6
 70
     1
102
RTVSPropertyOp7
 70
     1
102
RTVSPropertyOp8
 70
     1
102
RTVSPropertyOp9
 70
     1
102
RTVSPropertyOp10
 70
     1
102
RTVSPropertyOp11
 70
     1
102
RTVSPropertyOp12
 70
     1
102
RTVSPropertyOp13
 70
     1
102
RTVSPropertyOp14
 70
     1
102
RTVSPropertyOp15
 70
     1
102
RTVSPropertyOp16
 70
     1
102
RTVSPropertyOp17
 70
     1
102
RTVSPropertyOp18
 70
     1
102
RTVSPropertyOp19
 70
     1
102
RTVSPropertyOp20
 70
     1
102
RTVSPropertyOp21
 70
     1
102
RTVSPropertyOp22
 70
     1
102
RTVSPropertyOp23
 70
     1
102
RTVSPropertyOp24
 70
     1
102
RTVSPropertyOp25
 70
     1
102
RTVSPropertyOp26
 70
     1
102
RTVSPropertyOp27
 70
     1
102
RTVSPropertyOp28
 70
     1
102
RTVSPropertyOp29
 70
     1
102
RTVSPropertyOp30
 70
     1
102
RTVSPropertyOp31
 70
     1
102
RTVSPropertyOp32
 70
     1
102
RTVSPropertyOp33
 70
     1
102
RTVSPropertyOp34
 70
     1
102
RTVSPropertyOp35
 70
     1
102
RTVSPropertyOp36
 70
     1
102
RTVSPropertyOp37
 70
     1
102
RTVSPropertyOp38
 70
     1
102
RTVSPropertyOp39
 70
     1
102
RTVSPropertyOp40
 70
     1
102
RTVSPropertyOp41
 70
     1
102
RTVSPropertyOp42
 70
     1
102
RTVSPropertyOp43
 70
     1
102
RTVSPropertyOp44
 70
     1
102
RTVSPropertyOp45
 70
     1
102
RTVSPropertyOp46
 70
     1
102
RTVSPropertyOp47
 70
     1
102
RTVSPropertyOp48
 70
     1
102
RTVSPropertyOp49
 70
     1
102
RTVSPropertyOp50
 70
     1
102
RTVSPropertyOp51
 70
     0
102
RTVSPropertyOp52
 70
     0
102
RTVSPropertyOp53
 70
     1
102
RTVSPropertyOp54
 70
     1
102
RTVSPropertyOp55
 70
     1
102
RTVSPropertyOp56
 70
     1
102
RTVSPropertyOp57
 70
     1
102
RTVSPost2010Prop28
280
     0
102
RTVSPost2010PropOp28
 70
     1
102
RTVSPost2010Prop29
280
     1
102
RTVSPost2010PropOp29
 70
     1
102
RTVSPost2010Prop30
280
     1
102
RTVSPost2010PropOp30
 70
     1
102
RTVSPost2010Prop31
280
     0
102
RTVSPost2010PropOp31
 70
     1
102
RTVSPost2010Prop32
280
     0
102
RTVSPost2010PropOp32
 70
     1
102
RTVSPost2010Prop33
280
     0
102
RTVSPost2010PropOp33
 70
     1
102
RTVSPost2010Prop34
280
     0
102
RTVSPost2010PropOp34
 70
     1
102
RTVSPost2010Prop35
280
     0
102
RTVSPost2010PropOp35
 70
     1
102
RTVSPost2010Prop36
280
     0
102
RTVSPost2010PropOp36
 70
     1
102
RTVSPost2010Prop37
 90
       50
102
RTVSPost2010PropOp37
 70
     1
102
RTVSPost2010Prop38
140
0.0
102
RTVSPost2010PropOp38
 70
     1
102
RTVSPost2010Prop39
140
1.0
102
RTVSPost2010PropOp39
 70
     1
102
RTVSPost2010Prop40
 90
        0
102
RTVSPost2010PropOp40
 70
     1
102
RTVSPost2010Prop41ColorIndex
 90
       18
102
RTVSPost2010Prop41ColorRGB
 90
        0
102
RTVSPost2010PropOp41
 70
     1
102
RTVSPost2010Prop42
 90
       50
102
RTVSPost2010PropOp42
 70
     1
102
RTVSPost2010Prop43
 90
        3
102
RTVSPost2010PropOp43
 70
     1
102
RTVSPost2010Prop44ColorIndex
 90
        5
102
RTVSPost2010Prop44ColorRGB
 90
      255
102
RTVSPost2010PropOp44
 70
     1
102
RTVSPost2010Prop45
280
     0
102
RTVSPost2010PropOp45
 70
     1
102
RTVSPost2010Prop46
 90
       50
102
RTVSPost2010PropOp46
 70
     1
102
RTVSPost2010Prop47
 90
       50
102
RTVSPost2010PropOp47
 70
     1
102
RTVSPost2010Prop48
 90
       50
102
RTVSPost2010PropOp48
 70
     1
102
RTVSPost2010Prop49
280
     0
102
RTVSPost2010PropOp49
 70
     1
102
RTVSPost2010Prop50
 90
       50
102
RTVSPost2010PropOp50
 70
     1
102
RTVSPost2010Prop51ColorIndex
 90
      256
102
RTVSPost2010Prop51ColorRGB
 90
-16777216
102
RTVSPost2010PropOp51
 70
     0
102
RTVSPost2010Prop52
140
1.0
102
RTVSPost2010PropOp52
 70
     0
102
RTVSPost2010Prop53
 90
        2
102
RTVSPost2010PropOp53
 70
     1
102
RTVSPost2010Prop54
  1
strokes_ogs.tif
102
RTVSPost2010PropOp54
 70
     1
102
RTVSPost2010Prop55
280
     0
102
RTVSPost2010PropOp55
 70
     1
102
RTVSPost2010Prop56
140
1.0
102
RTVSPost2010PropOp56
 70
     1
102
RTVSPost2010Prop57
140
1.0
102
RTVSPost2010PropOp57
 70
     1
  0
ENDSEC
  0
EOF
